<?xml version="1.0" standalone="no"?>
<!DOCTYPE svg PUBLIC "-//W3C//DTD SVG 1.1//EN" "http://www.w3.org/Graphics/SVG/1.1/DTD/svg11.dtd" >
<svg xmlns="http://www.w3.org/2000/svg">
<metadata>
Generated by SVGconv.
Copyright   : Copyright  2010 ParaType Ltd. All rights reserved.
Designer    : A.Korolkova, O.Umpeleva, V.Yefimov
Foundry     : ParaType Ltd
Foundry URL : http://www.paratype.com
</metadata>
<defs>
<font id="PTSerif-CaptionItalic" horiz-adv-x="613" >
<font-face units-per-em="1000" ascent="1039" descent="286" />
<missing-glyph horiz-adv-x="709" />
<glyph unicode="&#32;" horiz-adv-x="274" />
<glyph unicode="&#33;" horiz-adv-x="358" d="M174 218v177l65 305h105l-65 -305l-75 -177zM80 58q0 31 21 49q21 18 56 18q35 0 57 -18q22 -18 22 -49q0 -30 -22 -48q-22 -18 -57 -18q-35 0 -56 18t-21 48z" />
<glyph unicode="&#34;" horiz-adv-x="393" d="M314 700h98l-68 -197h-44zM171 700h98l-68 -197l-44 0z" />
<glyph unicode="&#35;" horiz-adv-x="600" d="M345 233h-160l-46 -175h-59l46 175h-90l17 47h85l39 149h-85l17 47h82l45 166h59l-45 -166h160l45 166h59l-45 -166h90l-20 -47h-83l-40 -149h87l-21 -47h-78l-46 -175h-59zM198 280h159l39 149l-159 0z" />
<glyph unicode="&#36;" horiz-adv-x="600" d="M429 710q51 -3 92.5 -13q41.5 -10 65.5 -21l-28 -131h-72l19 92q-12 8 -35.5 12q-23.5 4 -52.5 6l-55 -258q49 -32 82 -58.5q33 -26.5 52.5 -52q19.5 -25.5 27.5 -51q8 -25.5 8 -54.5q0 -36 -14.5 -69q-14.5 -33 -45.5 -59.5q-31 -26.5 -79.5 -43.5q-48.5 -17 -117.5 -20l-12 -59h-59l12 59q-70 5 -116.5 24.5q-46.5 19.5 -64.5 35.5l30 139h72l-21 -99q10 -14 39.5 -26.5q29.5 -12.5 72.5 -17.5l59 279q-39 24 -69.5 46q-30.5 22 -51.5 46q-21 24 -31.5 51.5q-10.5 27.5 -10.5 62.5q0 37 14.5 69.5q14.5 32.5 44.5 56.5q30 24 76.5 38.5q46.5 14.5 109.5 16.5l11 49h59zM429 166q0 26 -18.5 55.5q-18.5 29.5 -70.5 67.5l-52 -244q40 4 67 15q27 11 43.5 27q16.5 16 23.5 36.5q7 20.5 7 42.5zt0 0zM229 546q0 -29 17 -56q17 -27 65 -60l47 225q-70 -5 -99.5 -33t-29.5 -76z" />
<glyph unicode="&#37;" horiz-adv-x="908" d="M757 717l41 -38l-657 -686l-39 39zM52 501q0 46 20 84.5q20 38.5 53 66.5q33 28 76 44q43 16 90 16q77 0 117.5 -36q40.5 -36 40.5 -93q0 -52 -21.5 -91.5q-21.5 -39.5 -55.5 -66q-34 -26.5 -76.5 -40q-42.5 -13.5 -84.5 -13.5q-33 0 -62 9.5q-29 9.5 -50.5 26.5q-21.5 17 -34 40.5q-12.5 23.5 -12.5 52.5zt0 0zM147 499q0 -17 4 -33q4 -16 12.5 -28.5q8.5 -12.5 22.5 -20q14 -7.5 34 -7.5q24 0 48 11q24 11 43 34q19 23 31 58q12 35 12 83q0 15 -3.5 29q-3.5 14 -11.5 25q-8 11 -22.5 17.5q-14.5 6.5 -35.5 6.5q-24 0 -48 -13.5q-24 -13.5 -43 -36.5q-19 -23 -31 -55.5q-12 -32.5 -12 -69.5zt0 0zM450 117q0 46 20 84.5q20 38.5 53 66.5q33 28 76 44q43 16 90 16q77 0 117.5 -36q40.5 -36 40.5 -93q0 -52 -21.5 -91.5q-21.5 -39.5 -55.5 -66q-34 -26.5 -76.5 -40q-42.5 -13.5 -84.5 -13.5q-33 0 -62 9.5q-29 9.5 -50.5 26.5q-21.5 17 -34 40.5q-12.5 23.5 -12.5 52.5zt0 0zM545 115q0 -17 4 -33q4 -16 12.5 -28.5q8.5 -12.5 22.5 -20q14 -7.5 34 -7.5q24 0 48 11q24 11 43 34q19 23 31 58q12 35 12 83q0 15 -3.5 29q-3.5 14 -11.5 25q-8 11 -22.5 17.5q-14.5 6.5 -35.5 6.5q-24 0 -48 -13.5q-24 -13.5 -43 -36.5q-19 -23 -31 -55.5t-12 -69.5z" />
<glyph unicode="&#38;" horiz-adv-x="967" d="M533 123q-28 27 -59.5 63.5q-31.5 36.5 -60.5 74q-29 37.5 -53 72.5q-24 35 -36 58q-40 -29 -65 -58q-25 -29 -39 -57q-14 -28 -19 -53q-5 -25 -5 -46q0 -35 11.5 -60q11.5 -25 32 -42q20.5 -17 48 -25q27.5 -8 60.5 -8q49 0 99 20q50 20 86 61zt0 0zM344 569q0 -36 16 -72q16 -36 39 -65q24 15 45.5 33.5q21.5 18.5 38 40.5q16.5 22 26.5 46.5q10 24.5 10 51.5q0 11 -3 23q-3 12 -11 21.5q-8 9.5 -21.5 15.5q-13.5 6 -34.5 6q-28 0 -48 -9.5q-20 -9.5 -32.5 -24.5q-12.5 -15 -18.5 -33q-6 -18 -6 -34zt0 0zM682 0q-20 14 -51.5 34.5q-31.5 20.5 -65.5 55.5q-19 -18 -46.5 -36q-27.5 -18 -62.5 -33q-35 -15 -76 -24q-41 -9 -86 -9q-56 0 -96.5 14q-40.5 14 -66.5 37q-26 23 -38.5 54q-12.5 31 -12.5 66q0 48 19.5 88q19.5 40 51 73q31.5 33 71 58.5q39.5 25.5 80.5 45.5q-22 32 -33 62.5q-11 30.5 -11 68.5q0 27 11 54.5q11 27.5 35 50.5q24 23 61 37.5q37 14.5 88 14.5q75 0 111 -30.5q36 -30.5 36 -73.5q0 -34 -16 -63q-16 -29 -42 -54.5q-26 -25.5 -58.5 -46.5q-32.5 -21 -65.5 -38q35 -51 83.5 -104.5q48.5 -53.5 104.5 -107.5q11 11 30 37q19 26 38 61q19 35 34.5 76q15.5 41 20.5 82l-66 0l11 50h230l-11 -50h-75q-22 -58 -47.5 -106q-25.5 -48 -50 -84.5q-24.5 -36.5 -45 -62q-20.5 -25.5 -32.5 -37.5q36 -31 71 -58q35 -27 80 -52l61 0l-11 -50z" />
<glyph unicode="&#39;" horiz-adv-x="250" d="M171 700h98l-68 -197l-44 0z" />
<glyph unicode="&#40;" horiz-adv-x="379" d="M231 -210q-22 17 -52.5 46.5q-30.5 29.5 -58.5 73.5q-28 44 -47.5 104q-19.5 60 -19.5 138q0 82 27 159q27 77 76 147q49 70 118 131.5q69 61.5 154 112.5l21 -30q-57 -44 -110 -99.5q-53 -55.5 -94.5 -122q-41.5 -66.5 -66 -143q-24.5 -76.5 -24.5 -161.5q0 -65 9 -114q9 -49 24.5 -87.5q15.5 -38.5 36 -68q20.5 -29.5 43.5 -53.5z" />
<glyph unicode="&#41;" horiz-adv-x="379" d="M158 702q22 -17 52.5 -46.5q30.5 -29.5 58.5 -74q28 -44.5 47.5 -104q19.5 -59.5 19.5 -137.5q0 -83 -27 -159.5q-27 -76.5 -76 -146.5q-49 -70 -118 -131.5q-69 -61.5 -154 -112.5l-21 30q57 43 110 99q53 56 94.5 122.5q41.5 66.5 66 143q24.5 76.5 24.5 161.5q0 64 -9 113.5q-9 49.5 -24.5 88q-15.5 38.5 -36 68q-20.5 29.5 -43.5 53.5z" />
<glyph unicode="&#42;" horiz-adv-x="522" d="M465 507l-66 -110l-103 113l16 28zM398 695l66 -109l-151 -30l-18 25zM195 742h128l-47 -148h-35zM60 583l64 110l100 -111l-16 -26zM123 397l-63 108l149 35l15 -29zM326 349h-127l44 148l35 0z" />
<glyph unicode="&#43;" horiz-adv-x="600" d="M88 371h202v209h60v-209h202v-54h-202v-215h-60v215l-202 0z" />
<glyph unicode="&#44;" horiz-adv-x="309" d="M-7 -144q23 7 45 22.5q22 15.5 39.5 35.5q17.5 20 29.5 42.5q12 22.5 15 43.5l-70 0q-5 10 -6.5 20q-1.5 10 -1.5 20q0 23 9.5 44.5q9.5 21.5 23.5 35.5l126 0q2 -11 3 -22q1 -11 1 -22q0 -51 -18 -93.5q-18 -42.5 -46.5 -75.5q-28.5 -33 -65 -55q-36.5 -22 -72.5 -31z" />
<glyph unicode="&#45;" horiz-adv-x="475" d="M96 314h316l-13 -64l-316 0z" />
<glyph unicode="&#46;" horiz-adv-x="304" d="M38 58q0 31 21 49q21 18 56 18q35 0 57 -18q22 -18 22 -49q0 -30 -22 -48q-22 -18 -57 -18q-35 0 -56 18t-21 48z" />
<glyph unicode="&#47;" horiz-adv-x="386" d="M366 713l49 -19l-410 -824l-48 20z" />
<glyph unicode="&#48;" horiz-adv-x="600" d="M58 211q0 90 21 180q21 90 63 161q42 71 105 115.5q63 44.5 147 44.5q37 0 72.5 -10.5q35.5 -10.5 63.5 -35.5q28 -25 45 -67q17 -42 17 -104q0 -92 -21 -182.5q-21 -90.5 -64 -162.5q-43 -72 -107 -117q-64 -45 -149 -45q-52 0 -88.5 17.5q-36.5 17.5 -60 47.5q-23.5 30 -34 70.5q-10.5 40.5 -10.5 87.5zt0 0zM170 200q0 -54 9 -87q9 -33 22.5 -51.5q13.5 -18.5 30.5 -25q17 -6.5 34 -6.5q34 0 63 20.5q29 20.5 52.5 55.5q23.5 35 42 82.5q18.5 47.5 31 101.5q12.5 54 19 112q6.5 58 6.5 114q0 81 -22 117.5q-22 36.5 -68 36.5q-53 0 -94 -41.5q-41 -41.5 -69 -108.5q-28 -67 -42.5 -151t-14.5 -169z" />
<glyph unicode="&#49;" horiz-adv-x="600" d="M422 0h-331l14 64h114l120 564l-124 -63l-24 50l163 85h105l-135 -636l112 0z" />
<glyph unicode="&#50;" horiz-adv-x="600" d="M235 533h-96l24 111q49 36 102.5 51q53.5 15 119.5 15q54 0 90 -11.5q36 -11.5 57.5 -30.5q21.5 -19 31 -44q9.5 -25 9.5 -52q0 -57 -34.5 -118q-34.5 -61 -92 -121q-57.5 -60 -131.5 -117q-74 -57 -153 -106l-56 -30v-4l66 4h232l24 22l19 94h64l-41 -196h-454l18 84q33 18 77 48.5q44 30.5 91.5 69q47.5 38.5 94 83q46.5 44.5 83 92.5q36.5 48 59 97q22.5 49 22.5 95q0 16 -4.5 32q-4.5 16 -16 28q-11.5 12 -32 19.5q-20.5 7.5 -51.5 7.5q-33 0 -55 -5q-22 -5 -44 -13z" />
<glyph unicode="&#51;" horiz-adv-x="600" d="M227 44q55 0 93 19q38 19 61.5 47.5q23.5 28.5 34 63q10.5 34.5 10.5 66.5q0 52 -33 75q-33 23 -102 23h-72l14 68l265 218v4l-60 -8h-195l-24 -20l-18 -80h-64l39 180h432l-17 -78l-217 -178l-65 -42v-2l38 7q37 0 71.5 -8.5q34.5 -8.5 61 -28q26.5 -19.5 42.5 -50.5q16 -31 16 -75q0 -50 -18 -96q-18 -46 -56.5 -81.5q-38.5 -35.5 -99 -56.5q-60.5 -21 -146.5 -21q-26 0 -55 4q-29 4 -55.5 10.5q-26.5 6.5 -49 16q-22.5 9.5 -35.5 21.5l25 118h96l-19 -89q11 -10 39 -18.5t63 -8.5z" />
<glyph unicode="&#52;" horiz-adv-x="600" d="M496 0h-294l14 64h103l27 129h-344l14 64l438 443h105l-94 -443h124l-14 -64h-124l-27 -129h86zM422 549l22 72h-3l-50 -72l-263 -266l-44 -33l74 7l202 0z" />
<glyph unicode="&#53;" horiz-adv-x="600" d="M556 750h64l-28 -130h-305l-40 -190h59q56 0 97 -12.5q41 -12.5 68 -34.5q27 -22 40 -52q13 -30 13 -65q0 -59 -18 -109.5q-18 -50.5 -56.5 -87.5q-38.5 -37 -99.5 -58q-61 -21 -146 -21q-46 0 -88 10q-42 10 -69 33l23 107h96l-19 -87q10 -2 29 -5.5q19 -3.5 39 -3.5q57 0 95 18q38 18 60.5 47q22.5 29 32 65q9.5 36 9.5 71q0 62 -45 84.5q-45 22.5 -130 22.5h-71l74 348h285l24 20z" />
<glyph unicode="&#54;" horiz-adv-x="600" d="M562 255q0 -48 -17.5 -95.5q-17.5 -47.5 -53.5 -86q-36 -38.5 -91.5 -62q-55.5 -23.5 -130.5 -23.5q-63 0 -104 20.5q-41 20.5 -64.5 51.5q-23.5 31 -32.5 67q-9 36 -9 68q0 99 40.5 185.5q40.5 86.5 110 154.5q69.5 68 163 112.5q93.5 44.5 199.5 59.5l3 -50q-63 -12 -123 -38.5q-60 -26.5 -110 -66.5q-50 -40 -88.5 -92q-38.5 -52 -59.5 -115q31 31 77.5 51.5q46.5 20.5 109.5 20.5q47 0 81.5 -13.5q34.5 -13.5 56.5 -36q22 -22.5 32.5 -52q10.5 -29.5 10.5 -60.5zt0 0zM450 254q0 21 -7 41q-7 20 -20.5 35.5q-13.5 15.5 -34.5 24.5q-21 9 -49 9q-53 0 -95 -23.5q-42 -23.5 -65 -52.5q-2 -7 -5 -18q-3 -11 -5.5 -23q-2.5 -12 -4 -24q-1.5 -12 -1.5 -20q0 -32 5.5 -62.5q5.5 -30.5 19 -54q13.5 -23.5 37.5 -37.5q24 -14 61 -14q36 0 66.5 15q30.5 15 52 43.5q21.5 28.5 33.5 69t12 91.5z" />
<glyph unicode="&#55;" horiz-adv-x="600" d="M196 519h-64l38 181h470l-17 -79l-382 -621h-110l396 578l45 48l-58 -5h-277l-24 -20z" />
<glyph unicode="&#56;" horiz-adv-x="600" d="M46 147q0 39 15 71q15 32 42.5 58.5q27.5 26.5 66 47q38.5 20.5 84.5 35.5q-15 9 -32.5 23q-17.5 14 -32 33.5q-14.5 19.5 -24.5 45.5q-10 26 -10 60q0 46 19 81.5q19 35.5 52.5 60q33.5 24.5 79 37q45.5 12.5 97.5 12.5q50 0 85.5 -12q35.5 -12 58.5 -31.5q23 -19.5 34 -44.5q11 -25 11 -52q0 -30 -10 -59q-10 -29 -31.5 -55q-21.5 -26 -55 -47.5q-33.5 -21.5 -80.5 -36.5q35 -20 59 -38.5q24 -18.5 39 -39q15 -20.5 21.5 -44.5q6.5 -24 6.5 -54q0 -43 -20.5 -81q-20.5 -38 -57.5 -66.5q-37 -28.5 -88.5 -45.5q-51.5 -17 -112.5 -17q-58 0 -99 12q-41 12 -67 33.5q-26 21.5 -38 50.5q-12 29 -12 63zt0 0zM436 179q0 27 -10.5 48.5q-10.5 21.5 -29.5 40q-19 18.5 -45.5 34.5q-26.5 16 -58.5 33q-46 -24 -74.5 -48.5q-28.5 -24.5 -44 -48.5q-15.5 -24 -20.5 -47q-5 -23 -5 -44q0 -49 31 -80.5q31 -31.5 93 -31.5q43 0 74 14.5q31 14.5 51 36q20 21.5 29.5 46.5q9.5 25 9.5 47zt0 0zM260 539q0 -26 10.5 -47.5q10.5 -21.5 27 -39.5q16.5 -18 37.5 -32.5q21 -14.5 42 -25.5q27 17 48.5 38.5q21.5 21.5 35.5 44.5q14 23 21.5 46.5q7.5 23.5 7.5 44.5q0 97 -100 97q-55 0 -92.5 -32t-37.5 -94z" />
<glyph unicode="&#57;" horiz-adv-x="600" d="M95 449q0 49 17.5 96.5q17.5 47.5 53.5 84.5q36 37 91.5 59.5q55.5 22.5 130.5 22.5q62 0 102.5 -19.5q40.5 -19.5 64.5 -49.5q24 -30 33.5 -66.5q9.5 -36.5 9.5 -71.5q0 -99 -40.5 -185.5q-40.5 -86.5 -110 -154.5q-69.5 -68 -163 -112.5q-93.5 -44.5 -199.5 -59.5l-3 50q63 12 122.5 38.5q59.5 26.5 110 66.5q50.5 40 88.5 92q38 52 59 115q-31 -31 -77 -51.5q-46 -20.5 -109 -20.5q-47 0 -81.5 14.5q-34.5 14.5 -56.5 37.5q-22 23 -32.5 53q-10.5 30 -10.5 61zt0 0zM207 449q0 -21 7 -41.5q7 -20.5 20.5 -36.5q13.5 -16 34.5 -25.5q21 -9.5 49 -9.5q53 0 94.5 23.5q41.5 23.5 64.5 52.5q2 7 5 18q3 11 5.5 23q2.5 12 4.5 24q2 12 2 20q0 35 -5.5 65.5q-5.5 30.5 -19 53.5q-13.5 23 -37.5 36q-24 13 -61 13q-36 0 -66.5 -15q-30.5 -15 -52 -42.5q-21.5 -27.5 -33.5 -67.5t-12 -91z" />
<glyph unicode="&#58;" horiz-adv-x="358" d="M153 441q0 31 21 49q21 18 56 18q35 0 57 -18q22 -18 22 -49q0 -30 -22 -48q-22 -18 -57 -18q-35 0 -56 18q-21 18 -21 48zt0 0zM72 58q0 31 21 49q21 18 56 18q35 0 57 -18q22 -18 22 -49q0 -30 -22 -48q-22 -18 -57 -18q-35 0 -56 18t-21 48z" />
<glyph unicode="&#59;" horiz-adv-x="363" d="M154 441q0 31 21 49q21 18 56 18q35 0 57 -18q22 -18 22 -49q0 -30 -22 -48q-22 -18 -57 -18q-35 0 -56 18q-21 18 -21 48zt0 0zM28 -144q23 7 45 22.5q22 15.5 39.5 35.5q17.5 20 29.5 42.5q12 22.5 15 43.5l-70 0q-5 10 -6.5 20q-1.5 10 -1.5 20q0 23 9.5 44.5q9.5 21.5 23.5 35.5l126 0q2 -11 3 -22q1 -11 1 -22q0 -51 -18 -93.5q-18 -42.5 -46.5 -75.5q-28.5 -33 -65 -55q-36.5 -22 -72.5 -31z" />
<glyph unicode="&#60;" horiz-adv-x="600" d="M70 324v31l433 235l30 -59l-351 -186l357 -186l-37 -56z" />
<glyph unicode="&#61;" horiz-adv-x="600" d="M67 452h505v-54h-505zM67 290h505v-54l-505 0z" />
<glyph unicode="&#62;" horiz-adv-x="600" d="M570 369v-31l-433 -235l-33 56l354 193l-357 182l37 56z" />
<glyph unicode="&#63;" horiz-adv-x="521" d="M233 548h-96l25 121q48 25 91 34q43 9 97 9q97 0 148 -41q51 -41 51 -122q0 -48 -19.5 -92q-19.5 -44 -56 -79.5q-36.5 -35.5 -88.5 -60.5q-52 -25 -117 -35l-21 -100h-64l30 142q224 51 224 229q0 105 -98 105q-35 0 -55.5 -6q-20.5 -6 -31.5 -11zM110 58q0 31 21 49q21 18 56 18q35 0 57 -18q22 -18 22 -49q0 -30 -22 -48q-22 -18 -57 -18q-35 0 -56 18t-21 48z" />
<glyph unicode="&#64;" horiz-adv-x="1111" d="M792 490l-57 -285v-148h13q45 0 83.5 19.5q38.5 19.5 66 55q27.5 35.5 43.5 85q16 49.5 16 109.5q0 76 -30.5 137.5q-30.5 61.5 -82.5 105q-52 43.5 -122.5 66.5q-70.5 23 -149.5 23q-95 0 -172 -32q-77 -32 -131.5 -88.5q-54.5 -56.5 -84.5 -132.5q-30 -76 -30 -163q0 -89 35 -157.5q35 -68.5 93 -115q58 -46.5 132.5 -71q74.5 -24.5 153.5 -24.5q32 0 73.5 7q41.5 7 75.5 21l18 -46q-40 -20 -87 -28q-47 -8 -104 -8q-51 0 -105 11.5q-54 11.5 -104.5 34.5q-50.5 23 -95 58q-44.5 35 -77.5 81q-33 46 -52.5 104q-19.5 58 -19.5 127q0 109 39 197q39 88 105.5 150q66.5 62 155 95.5q88.5 33.5 187.5 33.5q94 0 175.5 -26.5q81.5 -26.5 141 -76q59.5 -49.5 93.5 -121q34 -71.5 34 -162.5q0 -59 -16.5 -117.5q-16.5 -58.5 -53 -104.5q-36.5 -46 -94.5 -74.5q-58 -28.5 -141 -28.5q-17 0 -33.5 1.5q-16.5 1.5 -35.5 3.5l0 176h-6q-13 -32 -34.5 -63q-21.5 -31 -49.5 -56.5q-28 -25.5 -59.5 -41q-31.5 -15.5 -64.5 -15.5q-67 0 -103.5 41.5q-36.5 41.5 -36.5 110.5q0 63 23.5 124q23.5 61 64 109q40.5 48 94 77q53.5 29 113.5 29q40 0 65 -6.5q25 -6.5 51 -17.5zM685 425q-17 10 -36 14q-19 4 -46 4q-43 0 -80.5 -26q-37.5 -26 -65.5 -66.5q-28 -40.5 -44 -89q-16 -48.5 -16 -92.5q0 -48 16.5 -73.5q16.5 -25.5 61.5 -25.5q21 0 45.5 18q24.5 18 48.5 47q24 29 46.5 65.5q22.5 36.5 40.5 74.5z" />
<glyph unicode="&#65;" horiz-adv-x="745" d="M193 0h-243l12 56h76l394 644h106l98 -644h74l-12 -56h-283l12 56h89l-27 176h-264l-106 -176h86zM260 288h224l-31 231q-1 3 -1 19.5q0 16.5 -1 36.5q-1 22 -1 50l-4 0l-54 -108z" />
<glyph unicode="&#66;" horiz-adv-x="676" d="M-21 0l11 56h91l125 588h-91l12 56h129q21 0 41 1q20 1 42 2q22 1 47 2q25 1 55 1q45 0 85.5 -7.5q40.5 -7.5 70.5 -24.5q30 -17 47.5 -44.5q17.5 -27.5 17.5 -67.5q0 -78 -51 -126.5q-51 -48.5 -134 -61.5l0 -4q25 -2 51 -10.5q26 -8.5 48 -26.5q22 -18 36 -45.5q14 -27.5 14 -66.5q0 -56 -26 -98q-26 -42 -72.5 -71q-46.5 -29 -110.5 -43.5q-64 -14.5 -139 -14.5q-39 0 -88 3q-49 3 -94 3zM298 50q40 0 78 10.5q38 10.5 68 32q30 21.5 48 53.5q18 32 18 75q0 62 -47 85.5q-47 23.5 -129 23.5h-83l-57 -271q14 -4 36 -6.5q22 -2.5 68 -2.5zt0 0zM317 383q20 0 45.5 1.5q25.5 1.5 42.5 3.5q42 13 69 31.5q27 18.5 43 40.5q16 22 22.5 46.5q6.5 24.5 6.5 48.5q0 41 -28.5 68q-28.5 27 -99.5 27q-34 0 -58.5 -1.5q-24.5 -1.5 -41.5 -3.5l-56 -262z" />
<glyph unicode="&#67;" horiz-adv-x="688" d="M559 184h64l-33 -157q-17 -9 -40.5 -16q-23.5 -7 -49.5 -12.5q-26 -5.5 -53 -8q-27 -2.5 -52 -2.5q-98 0 -160.5 23q-62.5 23 -97.5 60.5q-35 37.5 -48 84.5q-13 47 -13 96q0 100 30 184.5q30 84.5 86 146q56 61.5 136.5 95.5q80.5 34 182.5 34q73 0 118.5 -10.5q45.5 -10.5 80.5 -27.5l-37 -171h-64l23 105l-10 20q-11 5 -37 12.5q-26 7.5 -78 7.5q-68 0 -124 -28q-56 -28 -96.5 -79.5q-40.5 -51.5 -63 -124q-22.5 -72.5 -22.5 -161.5q0 -43 11.5 -80q11.5 -37 37 -64.5q25.5 -27.5 66 -43q40.5 -15.5 97.5 -15.5q36 0 65.5 5.5q29.5 5.5 43.5 14.5l18 19z" />
<glyph unicode="&#68;" horiz-adv-x="774" d="M-21 0l11 56h91l125 588h-91l12 56h123q19 0 45 1q26 1 53.5 2.5q27.5 1.5 53 3q25.5 1.5 42.5 1.5q98 0 159 -22.5q61 -22.5 95 -57.5q34 -35 46 -78q12 -43 12 -85q0 -105 -29.5 -192.5q-29.5 -87.5 -87.5 -150q-58 -62.5 -144 -97q-86 -34.5 -199 -34.5q-16 0 -39.5 1.5q-23.5 1.5 -49.5 3q-26 1.5 -52 3q-26 1.5 -47 1.5zM417 652q-28 0 -55 -1q-27 -1 -43 -4l-126 -596q6 -1 20 -1.5q14 -0.5 30.5 -1q16.5 -0.5 31.5 -1q15 -0.5 21 -0.5q96 0 160.5 37q64.5 37 103 96.5q38.5 59.5 55 135.5q16.5 76 16.5 154q0 36 -8.5 69q-8.5 33 -32.5 58q-24 25 -65.5 40t-107.5 15z" />
<glyph unicode="&#69;" horiz-adv-x="635" d="M659 700l-35 -164h-64l19 86l-16 22h-245l-55 -259h169l18 15l9 42h64l-36 -171h-64l9 42l-12 16h-169l-58 -273h262l24 20l21 98h64l-37 -174h-548l11 56h91l125 588h-91l12 56z" />
<glyph unicode="&#70;" horiz-adv-x="603" d="M183 56h107l-12 -56h-299l11 56h81l125 588h-81l12 56h531l-35 -164h-64l19 86l-16 22h-254l-58 -274h181l18 15l10 48h64q0 0 -3 -13.5q-3 -13.5 -7 -34q-4 -20.5 -9 -44q-5 -23.5 -9.5 -44q-4.5 -20.5 -7.5 -34q-3 -13.5 -3 -13.5h-64l11 48l-12 16l-181 0z" />
<glyph unicode="&#71;" horiz-adv-x="764" d="M617 48q-49 -29 -112 -44.5q-63 -15.5 -120 -15.5q-93 0 -153 23.5q-60 23.5 -94.5 61q-34.5 37.5 -48 85q-13.5 47.5 -13.5 96.5q0 100 29.5 184q29.5 84 85 145q55.5 61 135.5 95q80 34 182 34q74 0 125 -10.5q51 -10.5 86 -27.5q0 0 -1.5 -7.5q-1.5 -7.5 -4.5 -19.5q-3 -12 -6.5 -27.5q-3.5 -15.5 -6.5 -31.5q-8 -38 -18 -85l-64 0l23 105l-10 20q-8 5 -23 9q-15 4 -32 6.5q-17 2.5 -35 3.5q-18 1 -32 1q-74 0 -131.5 -31.5q-57.5 -31.5 -96.5 -85q-39 -53.5 -59.5 -124.5q-20.5 -71 -20.5 -150q0 -38 9 -75q9 -37 32.5 -66q23.5 -29 64 -46.5q40.5 -17.5 103.5 -17.5q33 0 54 4.5q21 4.5 41 11.5l19 18l40 189h-106l12 56h277l-12 -56l-70 0z" />
<glyph unicode="&#72;" horiz-adv-x="810" d="M276 56l-12 -56h-285l11 56h91l125 588h-91l12 56h286l-12 -56h-83l-54 -257h350l54 257h-83l12 56h286l-12 -56h-91l-125 -588h91l-12 -56h-285l11 56h83l59 275h-350l-59 -275z" />
<glyph unicode="&#73;" horiz-adv-x="389" d="M293 0h-294l12 56h91l125 588h-91l12 56h294l-12 -56h-91l-125 -588l91 0z" />
<glyph unicode="&#74;" horiz-adv-x="370" d="M-41 -113q18 8 36.5 20.5q18.5 12.5 35 34q16.5 21.5 31 54.5q14.5 33 25.5 82l121 566h-83l12 56h286l-12 -56h-91l-118 -556q-15 -71 -43.5 -117q-28.5 -46 -61.5 -73q-33 -27 -66.5 -40q-33.5 -13 -58.5 -18z" />
<glyph unicode="&#75;" horiz-adv-x="702" d="M323 382l269 262h-81l12 56h253l-12 -56h-79l-290 -264l205 -324h63l-12 -56h-150l-189 332h-60l-59 -276h83l-12 -56h-285l11 56h91l125 588h-91l12 56h286l-12 -56h-83l-56 -262z" />
<glyph unicode="&#76;" horiz-adv-x="599" d="M115 644l12 56h311l-12 -56h-108l-125 -588h266l25 22l29 138h72l-46 -216h-560l11 56h91l125 588z" />
<glyph unicode="&#77;" horiz-adv-x="974" d="M115 644l12 56h227l139 -441l336 441h218l-12 -56h-91l-125 -588h91l-12 -56h-290l12 56h91l95 446q1 3 6 21.5q5 18.5 10 39.5l14 56h-9l-66 -107l-282 -362h-61l-123 362l-19 117h-10l-12 -60q-5 -23 -9 -43q-4 -20 -5 -24l-95 -446h85l-12 -56h-239l11 56h91l125 588z" />
<glyph unicode="&#78;" horiz-adv-x="810" d="M640 700h243l-12 -56h-91l-140 -656h-57l-302 549l-24 77h-4l-5 -78l-102 -480h87l-12 -56h-242l11 56h91l125 588h-91l12 56h191l258 -474l34 -83h5l12 86l88 415l-87 0z" />
<glyph unicode="&#79;" horiz-adv-x="820" d="M76 283q0 81 25.5 158.5q25.5 77.5 78 137.5q52.5 60 132.5 96.5q80 36.5 188 36.5q67 0 123 -19.5q56 -19.5 95.5 -56.5q39.5 -37 61.5 -89q22 -52 22 -116q0 -80 -22 -159.5q-22 -79.5 -71 -142.5q-49 -63 -126 -102q-77 -39 -186 -39q-59 0 -116 17q-57 17 -103 53q-46 36 -74 91.5q-28 55.5 -28 133.5zt0 0zM201 282q0 -64 17.5 -109q17.5 -45 46 -73.5q28.5 -28.5 65.5 -42q37 -13.5 75 -13.5q78 0 130 35.5q52 35.5 83.5 91.5q31.5 56 45 124.5q13.5 68.5 13.5 134.5q0 111 -53 168.5q-53 57.5 -149 57.5q-71 0 -123 -33q-52 -33 -85.5 -86q-33.5 -53 -49.5 -120t-16 -135z" />
<glyph unicode="&#80;" horiz-adv-x="657" d="M115 644l12 56h112q45 0 95.5 4q50.5 4 99.5 4q55 0 100.5 -10q45.5 -10 77.5 -31q32 -21 50 -53.5q18 -32.5 18 -77.5q0 -66 -26 -116q-26 -50 -72.5 -84q-46.5 -34 -110.5 -51q-64 -17 -139 -17q-6 0 -18.5 0q-12.5 0 -26.5 0.5q-14 0.5 -27.5 1.5q-13.5 1 -20.5 2l-46 -216h100l-12 -56h-302l11 56h91l125 588zM251 329q5 -2 14.5 -2.5q9.5 -0.5 20.5 -1.5q11 -1 21.5 -1q10.5 0 16.5 0q46 0 88 12q42 12 74 37q32 25 50.5 63.5q18.5 38.5 18.5 92.5q0 56 -38 89.5q-38 33.5 -126 33.5q-27 0 -43 -2q-16 -2 -30 -4z" />
<glyph unicode="&#81;" horiz-adv-x="820" d="M830 -131q-51 -37 -105.5 -54q-54.5 -17 -108.5 -17q-46 0 -96 17q-50 17 -104 38.5q-54 21.5 -113 42q-59 20.5 -123 27.5l16 40q24 3 47 3q57 0 110.5 -12.5q53.5 -12.5 107 -27.5q53.5 -15 109 -27.5q55.5 -12.5 115.5 -12.5q32 0 66.5 5q34.5 5 70.5 16zM76 283q0 81 25.5 158.5q25.5 77.5 78 137.5q52.5 60 132.5 96.5q80 36.5 188 36.5q67 0 123 -19.5q56 -19.5 95.5 -56.5q39.5 -37 61.5 -89q22 -52 22 -116q0 -80 -22 -159.5q-22 -79.5 -71 -142.5q-49 -63 -126 -102q-77 -39 -186 -39q-59 0 -116 17q-57 17 -103 53q-46 36 -74 91.5q-28 55.5 -28 133.5zt0 0zM201 282q0 -64 17.5 -109q17.5 -45 46 -73.5q28.5 -28.5 65.5 -42q37 -13.5 75 -13.5q78 0 130 35.5q52 35.5 83.5 91.5q31.5 56 45 124.5q13.5 68.5 13.5 134.5q0 111 -53 168.5q-53 57.5 -149 57.5q-71 0 -123 -33q-52 -33 -85.5 -86q-33.5 -53 -49.5 -120t-16 -135z" />
<glyph unicode="&#82;" horiz-adv-x="700" d="M193 56h86l-12 -56h-288l11 56h91l125 588h-91l12 56h101q45 0 99 4q54 4 105 4q112 0 170 -42.5q58 -42.5 58 -124.5q0 -50 -19 -89.5q-19 -39.5 -49 -68q-30 -28.5 -68 -46q-38 -17.5 -76 -23.5l145 -258h67l-12 -56h-155l-146 303h-102zM335 354q41 0 77.5 11q36.5 11 63.5 34q27 23 43 58q16 35 16 83q0 54 -32 83q-32 29 -108 29q-26 0 -44 -2q-18 -2 -33 -4l-62 -292z" />
<glyph unicode="&#83;" horiz-adv-x="586" d="M102 104l13 -24q7 -6 21 -12.5q14 -6.5 31.5 -12q17.5 -5.5 37 -8.5q19.5 -3 38.5 -3q87 0 134.5 34q47.5 34 47.5 99q0 39 -21.5 67q-21.5 28 -53.5 51q-32 23 -70 44q-38 21 -70 46.5q-32 25.5 -53.5 58.5q-21.5 33 -21.5 79q0 91 69 140q69 49 202 49q69 0 114 -9.5q45 -9.5 77 -24.5q0 0 -2 -7.5q-2 -7.5 -4 -19.5q-2 -12 -5.5 -27.5q-3.5 -15.5 -6.5 -31.5q-8 -38 -18 -85l-64 0l22 107l-11 25q-17 8 -49 12.5q-32 4.5 -67 4.5q-75 0 -110 -30q-35 -30 -35 -72q0 -35 21.5 -60.5q21.5 -25.5 53.5 -48q32 -22.5 70 -44q38 -21.5 70 -48q32 -26.5 53.5 -61.5q21.5 -35 21.5 -83q0 -50 -20 -90.5q-20 -40.5 -58.5 -69.5q-38.5 -29 -95.5 -45q-57 -16 -131 -16q-35 0 -67.5 5q-32.5 5 -59.5 13q-27 8 -47.5 17q-20.5 9 -32.5 18l38 182l64 0z" />
<glyph unicode="&#84;" horiz-adv-x="688" d="M454 0h-318l12 56h103l125 588h-180l-23 -22l-28 -129h-72l44 207h654l-44 -207h-72l28 129l-17 22h-178l-125 -588l103 0z" />
<glyph unicode="&#85;" horiz-adv-x="752" d="M657 244q-28 -132 -105.5 -192.5q-77.5 -60.5 -204.5 -60.5q-67 0 -114 15.5q-47 15.5 -77 42.5q-30 27 -43.5 64.5q-13.5 37.5 -13.5 82.5q0 37 9 79l78 369h-91l12 56h284l-12 -56h-81l-78 -367q-4 -20 -6.5 -37q-2.5 -17 -2.5 -34q0 -72 40 -110q40 -38 124 -38q176 0 217 188l86 398h-82l12 56h237l-12 -56l-91 0z" />
<glyph unicode="&#86;" horiz-adv-x="771" d="M699 644h-91l12 56h253l-12 -56h-82l-369 -644h-111l-123 644h-86l12 56h302l-12 -56h-96l81 -467l9 -95h4l50 97z" />
<glyph unicode="&#87;" horiz-adv-x="1058" d="M985 644h-87l12 56h250l-12 -56h-83l-304 -644h-117l-39 553l-274 -553h-117l-38 644h-86l12 56h296l-12 -56h-95l16 -428q0 -3 -0.5 -24q-0.5 -21 -0.5 -45q-1 -28 -1 -64l4 0l68 135q1 2 11.5 23.5q10.5 21.5 27.5 56q17 34.5 38.5 77.5q21.5 43 43.5 88q52 105 118 237l75 0l40 -482q0 -4 0 -25q0 -21 1 -45q0 -28 1 -63l5 0l59 135z" />
<glyph unicode="&#88;" horiz-adv-x="746" d="M542 700h256l-12 -56h-82l-254 -269l162 -319h91l-12 -56h-289l12 56h73l-123 247l-218 -247h77l-12 -56h-254l12 56h83l283 296l-148 292h-89l12 56h296l-12 -56h-80l108 -223l196 223l-88 0z" />
<glyph unicode="&#89;" horiz-adv-x="727" d="M575 700h254l-12 -56h-85l-287 -347l-51 -241h83l-12 -56h-286l12 56h91l51 240l-152 348h-91l12 56h299l-12 -56h-84l114 -296l236 296l-92 0z" />
<glyph unicode="&#90;" horiz-adv-x="662" d="M-4 56l570 588h-328l-24 -22l-27 -125h-72l43 203h555l-12 -56l-570 -588h365l25 22l26 125h72l-43 -203l-592 0z" />
<glyph unicode="&#91;" horiz-adv-x="336" d="M185 700h215l-9 -42h-116l-179 -846h116l-9 -42l-215 0z" />
<glyph unicode="&#92;" horiz-adv-x="428" d="M459 -107l-58 -27l-455 823l58 29z" />
<glyph unicode="&#93;" horiz-adv-x="336" d="M155 -230h-215l9 42h116l179 846h-117l9 42l216 0z" />
<glyph unicode="&#94;" horiz-adv-x="600" d="M284 711h39l191 -277h-102l-126 199l-146 -199l-64 0z" />
<glyph unicode="&#95;" horiz-adv-x="460" d="M0 -142h460v-54l-460 0z" />
<glyph unicode="&#96;" horiz-adv-x="327" d="M327 615l-28 -23l-196 117v41l126 0z" />
<glyph unicode="&#97;" horiz-adv-x="591" d="M220 54q19 0 42 11.5q23 11.5 45.5 29.5q22.5 18 42 40.5q19.5 22.5 32.5 44.5l53 272q-10 13 -29.5 21q-19.5 8 -44.5 8q-51 0 -90 -28.5q-39 -28.5 -66 -74.5q-27 -46 -41 -102.5q-14 -56.5 -14 -111.5q0 -110 70 -110zt0 0zM370 117q-10 -17 -28 -39q-18 -22 -43.5 -41.5q-25.5 -19.5 -57.5 -33q-32 -13.5 -69 -13.5q-57 0 -91.5 39q-34.5 39 -34.5 117q0 74 21 144q21 70 61 124.5q40 54.5 98.5 87.5q58.5 33 134.5 33q28 0 53.5 -10.5q25.5 -10.5 36.5 -23.5l16 24h77l-94 -471h82v-54h-177l21 117z" />
<glyph unicode="&#98;" horiz-adv-x="582" d="M176 696h-74v54h183l-72 -319h6q33 46 80 75q47 29 113 29q58 0 93.5 -38q35.5 -38 35.5 -120q0 -80 -23.5 -150.5q-23.5 -70.5 -67 -123q-43.5 -52.5 -104 -83q-60.5 -30.5 -135.5 -30.5q-55 0 -102.5 13.5q-47.5 13.5 -70.5 32.5zM352 468q-22 0 -44 -8q-22 -8 -41 -21q-19 -13 -34 -29.5q-15 -16.5 -23 -32.5l-67 -318q17 -10 41 -12.5q24 -2.5 47 -2.5q46 0 84 26.5q38 26.5 65 70.5q27 44 42 100.5q15 56.5 15 116.5q0 50 -18 80t-67 30z" />
<glyph unicode="&#99;" horiz-adv-x="472" d="M436 99q-28 -52 -80 -80.5q-52 -28.5 -128 -28.5q-43 0 -77 15.5q-34 15.5 -58 41.5q-24 26 -36.5 61.5q-12.5 35.5 -12.5 74.5q0 78 21 143q21 65 61.5 111.5q40.5 46.5 98.5 72q58 25.5 132 25.5q42 0 78 -10.5q36 -10.5 51 -27.5l-30 -119h-70l21 90q-8 7 -26.5 10q-18.5 3 -33.5 3q-45 0 -81.5 -19.5q-36.5 -19.5 -63 -54.5q-26.5 -35 -40.5 -84.5q-14 -49.5 -14 -110.5q0 -72 33 -113.5q33 -41.5 87 -41.5q45 0 79.5 19.5q34.5 19.5 55.5 48.5z" />
<glyph unicode="&#100;" horiz-adv-x="591" d="M230 54q26 0 48.5 9q22.5 9 41.5 24q19 15 34.5 34q15.5 19 26.5 39l59 301q-16 11 -29.5 15.5q-13.5 4.5 -38.5 4.5q-53 0 -93.5 -28.5q-40.5 -28.5 -68.5 -74q-28 -45.5 -42.5 -102q-14.5 -56.5 -14.5 -112.5q0 -54 21.5 -82q21.5 -28 55.5 -28zt0 0zM365 104q-11 -20 -28 -40.5q-17 -20.5 -40 -37q-23 -16.5 -52 -26.5q-29 -10 -63 -10q-29 0 -53 11q-24 11 -42 31q-18 20 -28 49.5q-10 29.5 -10 65.5q0 74 22 144q22 70 63.5 124q41.5 54 101.5 87q60 33 135 33q15 0 25.5 -1q10.5 -1 19 -3q8.5 -2 16.5 -5.5q8 -3.5 19 -7.5l37 178h-73v54h183l-145 -700h81v-50h-177l13 104z" />
<glyph unicode="&#101;" horiz-adv-x="501" d="M435 96q-11 -20 -30 -39q-19 -19 -45 -34q-26 -15 -58 -24q-32 -9 -69 -9q-86 0 -137.5 48.5q-51.5 48.5 -51.5 136.5q0 75 22 141q22 66 62 114q40 48 96.5 76.5q56.5 28.5 125.5 28.5q27 0 51 -6.5q24 -6.5 42 -19.5q18 -13 28 -32q10 -19 10 -44q0 -72 -76 -116q-76 -44 -249 -56q-4 -18 -6 -34q-2 -16 -2 -32q0 -63 32.5 -100.5q32.5 -37.5 95.5 -37.5q20 0 39.5 6q19.5 6 37.5 15.5q18 9.5 32.5 21.5q14.5 12 23.5 23zM317 488q-47 0 -86 -41.5q-39 -41.5 -67 -138.5q106 3 162.5 35q56.5 32 56.5 86q0 11 -3 21.5q-3 10.5 -10.5 19q-7.5 8.5 -20 13.5t-32.5 5z" />
<glyph unicode="&#102;" horiz-adv-x="327" d="M140 471h-79v54h93l8 46q9 50 29.5 84q20.5 34 51.5 55q31 21 70 30.5q39 9.5 84 9.5q19 0 44 -4.5q25 -4.5 43 -12.5l-27 -114h-57l14 69q-11 4 -23 6q-12 2 -23 2q-38 0 -66.5 -26q-28.5 -26 -42.5 -93l-11 -52h122v-54h-133l-70 -426q-12 -74 -39.5 -121q-27.5 -47 -59 -74.5q-31.5 -27.5 -61.5 -39.5q-30 -12 -48 -17l-19 41q14 6 32.5 17q18.5 11 37.5 32.5q19 21.5 35 55.5q16 34 25 86z" />
<glyph unicode="&#103;" horiz-adv-x="538" d="M367 -55q0 28 -25.5 46.5q-25.5 18.5 -70.5 31q-45 12.5 -106.5 20.5q-61.5 8 -133.5 15l99 139q-14 7 -28.5 17.5q-14.5 10.5 -25.5 26.5q-11 16 -18 37.5q-7 21.5 -7 49.5q0 49 18.5 87.5q18.5 38.5 52.5 65q34 26.5 80.5 40.5q46.5 14 103.5 14h272v-54h-109q7 -12 11 -37q4 -25 4 -49q0 -55 -20.5 -96.5q-20.5 -41.5 -54.5 -70q-34 -28.5 -78.5 -43q-44.5 -14.5 -92.5 -14.5q-21 0 -42 2q-21 2 -28 6l-44 -62q54 -4 115 -10q61 -6 112.5 -21q51.5 -15 85.5 -42q34 -27 34 -72q0 -44 -24 -78q-24 -34 -63.5 -57q-39.5 -23 -91.5 -35q-52 -12 -108 -12q-48 0 -90.5 9q-42.5 9 -75 25.5q-32.5 16.5 -51 39q-18.5 22.5 -18.5 50.5q0 33 22 55q22 22 50 31l55 0q-14 -12 -22.5 -29.5q-8.5 -17.5 -8.5 -33.5q0 -24 14 -41.5q14 -17.5 36 -29q22 -11.5 49.5 -17q27.5 -5.5 55.5 -5.5q41 0 72 8.5q31 8.5 52 23q21 14.5 32 32.5q11 18 11 37zt0 0zM311 485q-74 0 -120.5 -39.5q-46.5 -39.5 -46.5 -124.5q0 -27 8.5 -47q8.5 -20 22 -33.5q13.5 -13.5 31 -20q17.5 -6.5 35.5 -6.5q34 0 62.5 12q28.5 12 48.5 33.5q20 21.5 31 51.5q11 30 11 67q0 38 -7.5 64.5q-7.5 26.5 -21.5 42.5z" />
<glyph unicode="&#104;" horiz-adv-x="601" d="M113 696v54h181l-71 -309h6q38 39 85 66.5q47 27.5 113 27.5q102 0 102 -120q0 -29 -5.5 -61.5q-5.5 -32.5 -13.5 -62.5l-61 -237h85v-54h-187l63 273q8 32 14.5 61q6.5 29 6.5 55q0 37 -15.5 58q-15.5 21 -47.5 21q-23 0 -45 -6.5q-22 -6.5 -42 -16.5q-20 -10 -37 -23q-17 -13 -29 -26l-82 -396h-96l148 696z" />
<glyph unicode="&#105;" horiz-adv-x="307" d="M76 471v54h181l-104 -471h82v-54h-193l107 471zM143 687q0 29 20.5 46q20.5 17 52.5 17q34 0 53.5 -17q19.5 -17 19.5 -46q0 -29 -19.5 -46q-19.5 -17 -53.5 -17q-32 0 -52.5 17t-20.5 46z" />
<glyph unicode="&#106;" horiz-adv-x="300" d="M147 471h-68v54h177l-105 -480q-17 -75 -47.5 -122q-30.5 -47 -64.5 -75q-34 -28 -66 -40q-32 -12 -50 -17l-16 41q13 6 32.5 16.5q19.5 10.5 39.5 31.5q20 21 39 55.5q19 34.5 31 89.5zM138 687q0 29 20.5 46q20.5 17 52.5 17q34 0 53.5 -17q19.5 -17 19.5 -46q0 -29 -19.5 -46q-19.5 -17 -53.5 -17q-32 0 -52.5 17t-20.5 46z" />
<glyph unicode="&#107;" horiz-adv-x="533" d="M225 249h-39l-51 -249h-98l146 696h-73v54h180l-95 -461h32l159 159v77h133v-42l-211 -184l136 -245h58v-54l-145 0z" />
<glyph unicode="&#108;" horiz-adv-x="297" d="M175 696h-73v54h181l-122 -581q-5 -22 -6 -36q-1 -14 -1 -27q0 -28 10 -38.5q10 -10.5 25 -10.5q26 0 49 16q23 16 43 33l23 -35q-11 -14 -28 -28q-17 -14 -38 -26q-21 -12 -45 -19.5q-24 -7.5 -48 -7.5q-49 0 -72 24q-23 24 -23 61q0 16 2.5 33.5q2.5 17.5 6.5 36.5z" />
<glyph unicode="&#109;" horiz-adv-x="883" d="M698 315q7 26 13.5 53.5q6.5 27.5 6.5 44.5q0 26 -12.5 42q-12.5 16 -44.5 16q-17 0 -38 -9q-21 -9 -41.5 -22.5q-20.5 -13.5 -38 -30.5q-17.5 -17 -26.5 -33l-92 -376h-92l69 295q8 32 13.5 62.5q5.5 30.5 5.5 62.5q0 23 -9 37q-9 14 -31 14q-22 0 -43.5 -8q-21.5 -8 -41 -21q-19.5 -13 -36 -30q-16.5 -17 -30.5 -36l-86 -376h-98l103 471h-68v54h179l-22 -87h4q12 14 30 31q18 17 41 31.5q23 14.5 51.5 24.5q28.5 10 61.5 10q40 0 65 -22.5q25 -22.5 25 -78.5q48 46 97 73.5q49 27.5 106 27.5q97 0 97 -101q0 -27 -5.5 -56q-5.5 -29 -15.5 -63l-74 -261h83v-54l-190 0z" />
<glyph unicode="&#110;" horiz-adv-x="610" d="M425 299q8 32 14 60.5q6 28.5 6 55.5q0 23 -12 39.5q-12 16.5 -36 16.5q-30 0 -57.5 -12q-27.5 -12 -50.5 -29.5q-23 -17.5 -40.5 -36.5q-17.5 -19 -27.5 -33l-78 -360h-97l99 471h-69v54h178l-23 -104h5q42 51 94 82.5q52 31.5 112 31.5q54 0 77.5 -26.5q23.5 -26.5 23.5 -68.5q0 -23 -5.5 -58q-5.5 -35 -13.5 -65l-63 -263h82v-54h-87l-98 0z" />
<glyph unicode="&#111;" horiz-adv-x="564" d="M44 195q0 56 18.5 116.5q18.5 60.5 56 109.5q37.5 49 94 81.5q56.5 32.5 132.5 32.5q87 0 131 -51q44 -51 44 -149q0 -69 -21 -131q-21 -62 -59 -109q-38 -47 -91 -76q-53 -29 -118 -29q-85 0 -136 52.5q-51 52.5 -51 152.5zt0 0zM323 488q-35 0 -62 -15q-27 -15 -46 -40.5q-19 -25.5 -32 -58q-13 -32.5 -21 -68q-8 -35.5 -11 -70q-3 -34.5 -3 -65.5q0 -58 27.5 -96q27.5 -38 75.5 -38q38 0 68.5 28q30.5 28 52 71.5q21.5 43.5 33 99.5q11.5 56 11.5 115q0 62 -22.5 99.5t-70.5 37.5z" />
<glyph unicode="&#112;" horiz-adv-x="599" d="M110 -150h76v-50h-186l151 671h-68v54h177l-26 -103h4q16 22 36 42.5q20 20.5 44.5 36.5q24.5 16 53 25q28.5 9 61.5 9q56 0 92 -37.5q36 -37.5 36 -119.5q0 -76 -25 -146q-25 -70 -68.5 -124q-43.5 -54 -102 -86q-58.5 -32 -125.5 -32q-18 0 -31 1q-13 1 -23 3.5q-10 2.5 -19.5 5.5q-9.5 3 -20.5 8zM380 471q-28 0 -53.5 -12q-25.5 -12 -46 -29.5q-20.5 -17.5 -35.5 -38q-15 -20.5 -22 -38.5l-65 -295q7 -6 14.5 -10.5q7.5 -4.5 17 -6.5q9.5 -2 22.5 -3q13 -1 32 -1q43 0 81.5 30q38.5 30 67.5 77.5q29 47.5 46.5 106.5q17.5 59 17.5 116q0 50 -19.5 77t-57.5 27z" />
<glyph unicode="&#113;" horiz-adv-x="570" d="M394 -150h77v-50h-186l71 298h-4q-11 -18 -29.5 -37q-18.5 -19 -42.5 -35q-24 -16 -52 -26q-28 -10 -58 -10q-65 0 -95.5 43.5q-30.5 43.5 -30.5 113.5q0 75 21 145q21 70 62.5 124q41.5 54 103.5 86.5q62 32.5 143 32.5q24 0 49.5 -3q25.5 -3 48 -8q22.5 -5 41 -10.5q18.5 -5.5 29.5 -11.5zM217 57q21 0 44.5 9.5q23.5 9.5 44.5 24.5q21 15 37.5 32q16.5 17 25.5 32l68 319q-14 8 -29 11q-15 3 -40 3q-56 0 -97.5 -30q-41.5 -30 -68.5 -76.5q-27 -46.5 -40.5 -104.5q-13.5 -58 -13.5 -113q0 -54 18.5 -80.5t50.5 -26.5z" />
<glyph unicode="&#114;" horiz-adv-x="418" d="M341 429q-10 -2 -23.5 -5.5q-13.5 -3.5 -28.5 -9.5q-15 -6 -31 -16q-16 -10 -31 -25l-82 -373h-98l103 471h-69v54h177l-24 -102h5q20 31 49 60.5q29 29.5 55 41.5l80 0l0 -96z" />
<glyph unicode="&#115;" horiz-adv-x="471" d="M183 44q18 0 38.5 3.5q20.5 3.5 37.5 12.5q17 9 28 24.5q11 15.5 11 39.5q0 25 -15.5 44q-15.5 19 -38.5 36.5q-23 17.5 -50.5 35q-27.5 17.5 -50.5 38q-23 20.5 -38.5 46.5q-15.5 26 -15.5 61q0 37 17 65.5q17 28.5 46 47q29 18.5 69 28q40 9.5 85 9.5q21 0 41.5 -3q20.5 -3 38 -7.5q17.5 -4.5 30.5 -10.5q13 -6 19 -11l-30 -117h-62l17 82q-8 6 -28.5 9.5q-20.5 3.5 -35.5 3.5q-16 0 -34.5 -2.5q-18.5 -2.5 -34.5 -10q-16 -7.5 -26.5 -21q-10.5 -13.5 -10.5 -35.5q0 -27 15.5 -47q15.5 -20 39.5 -37q24 -17 51 -34q27 -17 51 -37.5q24 -20.5 39.5 -47q15.5 -26.5 15.5 -63.5q0 -38 -20 -67q-20 -29 -53 -49q-33 -20 -76.5 -30q-43.5 -10 -89.5 -10q-26 0 -51.5 5q-25.5 5 -47 12.5q-21.5 7.5 -37 16q-15.5 8.5 -21.5 14.5l38 119h68l-26 -83q11 -11 36 -20.5t61 -9.5z" />
<glyph unicode="&#116;" horiz-adv-x="395" d="M58 525h106l29 115h94l-27 -115h135v-54h-146l-78 -302q-5 -20 -7 -36q-2 -16 -2 -33q0 -46 52 -46q27 0 61 12.5q34 12.5 60 35.5l21 -40q-11 -12 -30.5 -25q-19.5 -13 -44.5 -23.5q-25 -10.5 -55 -17q-30 -6.5 -62 -6.5q-49 0 -76 24q-27 24 -27 61q0 16 1 33.5q1 17.5 6 36.5l82 326l-92 0z" />
<glyph unicode="&#117;" horiz-adv-x="600" d="M540 54v-54h-184l21 118h-4q-15 -21 -37 -43.5q-22 -22.5 -49.5 -41q-27.5 -18.5 -60 -31q-32.5 -12.5 -68.5 -12.5q-46 0 -73 24.5q-27 24.5 -27 71.5q0 14 2.5 36.5q2.5 22.5 8.5 51.5l63 297h-69v54h180l-69 -299q-6 -26 -12 -55.5q-6 -29.5 -6 -57.5q0 -30 13 -44.5q13 -14.5 34 -14.5q34 0 64.5 16q30.5 16 55 37.5q24.5 21.5 41 44.5q16.5 23 24.5 38l67 335h95l-91 -471z" />
<glyph unicode="&#118;" horiz-adv-x="496" d="M257 128l142 281l-20 116h123v-54l-252 -471h-100l-64 471h-69v54h162l43 -406v-65l9 0z" />
<glyph unicode="&#119;" horiz-adv-x="761" d="M548 122l118 277l-20 126h121v-54l-216 -471h-110l-39 282l-7 88h-5l-156 -370h-117l-29 471h-71v54h165l16 -471h5l29 82l142 335h92l56 -417l5 0z" />
<glyph unicode="&#120;" horiz-adv-x="502" d="M221 223l-113 -133l16 -90h-129v54l211 212l-76 205h-68v54h156l66 -207l107 116l-8 91h116v-54l-201 -200l84 -217h66v-54l-155 0z" />
<glyph unicode="&#121;" horiz-adv-x="508" d="M96 471h-61v54h149l78 -416v-55h8l27 52q17 37 35 79q18 42 35.5 84q17.5 42 32.5 82.5q15 40.5 25 76.5l-28 97h123v-54q-16 -44 -39.5 -102.5q-23.5 -58.5 -51.5 -122q-28 -63.5 -60 -129.5q-32 -66 -64.5 -125.5q-32.5 -59.5 -65 -109.5q-32.5 -50 -61.5 -82l-115 0v96h111q14 17 28.5 39q14.5 22 28.5 65l-49 0z" />
<glyph unicode="&#122;" horiz-adv-x="483" d="M373 441h-235l-28 -72h-57l33 156h390v-54l-363 -387h262l27 72h58l-34 -156h-417l0 54z" />
<glyph unicode="&#123;" horiz-adv-x="381" d="M118 110q4 17 4 36q0 35 -18 54q-18 19 -53 19l7 32q44 0 73.5 30.5q29.5 30.5 38.5 74.5l51 238q10 48 43 77q33 29 87 29h103l-9 -42h-53q-30 0 -46.5 -14q-16.5 -14 -23.5 -46l-50 -233q-7 -33 -23.5 -56q-16.5 -23 -38 -37.5q-21.5 -14.5 -44.5 -22q-23 -7.5 -44 -9.5l-2 -6q17 -2 34.5 -8.5q17.5 -6.5 32 -19q14.5 -12.5 24 -30.5q9.5 -18 9.5 -43q0 -13 -3 -28l-50 -233q-1 -6 -1.5 -10.5q-0.5 -4.5 -0.5 -9.5q0 -40 50 -40h51l-9 -42h-103q-42 0 -65.5 18.5q-23.5 18.5 -23.5 56.5q0 13 3 30z" />
<glyph unicode="&#124;" horiz-adv-x="266" d="M103 700h59v-830l-59 0z" />
<glyph unicode="&#125;" horiz-adv-x="381" d="M270 361q-4 -17 -4 -35q0 -35 18 -54.5q18 -19.5 53 -19.5l-7 -32q-43 0 -73 -30.5q-30 -30.5 -39 -74.5l-51 -239q-10 -48 -42.5 -77q-32.5 -29 -87.5 -29h-101l9 42h52q30 0 46.5 14q16.5 14 23.5 46l50 234q7 33 22 56q15 23 34 37.5q19 14.5 40.5 22q21.5 7.5 42.5 9.5l1 6q-17 1 -32.5 7.5q-15.5 6.5 -28.5 18.5q-13 12 -20.5 29q-7.5 17 -7.5 41q0 8 1.5 18.5q1.5 10.5 2.5 14.5l50 232q1 6 1.5 10.5q0.5 4.5 0.5 9.5q0 40 -49 40h-52l9 42h103q42 0 65.5 -19q23.5 -19 23.5 -56q0 -7 -1 -14.5q-1 -7.5 -3 -15.5z" />
<glyph unicode="&#126;" horiz-adv-x="595" d="M59 331q41 54 82 70.5q41 16.5 76 16.5q29 0 55.5 -10.5q26.5 -10.5 52.5 -23.5q26 -13 52 -23.5q26 -10.5 54 -10.5q21 0 42.5 7.5q21.5 7.5 44.5 26.5l19 -32q-32 -42 -65.5 -54.5q-33.5 -12.5 -65.5 -12.5q-29 0 -56.5 10.5q-27.5 10.5 -54.5 23.5q-27 13 -54 23.5q-27 10.5 -54 10.5q-25 0 -49.5 -10.5q-24.5 -10.5 -50.5 -41.5z" />
<glyph unicode="&#160;" horiz-adv-x="274" />
<glyph unicode="&#161;" horiz-adv-x="358" d="M217 286v-177l-65 -305h-105l65 305l75 177zM311 446q0 -31 -21 -49q-21 -18 -56 -18q-35 0 -57 18q-22 18 -22 49q0 30 22 48q22 18 57 18q35 0 56 -18t21 -48z" />
<glyph unicode="&#162;" horiz-adv-x="600" d="M486 99q-26 -50 -74.5 -77.5q-48.5 -27.5 -118.5 -30.5l-36 -170h-60l39 172q-44 6 -76.5 25q-32.5 19 -53.5 46q-21 27 -31.5 60q-10.5 33 -10.5 69q0 72 20 131q20 59 58 102.5q38 43.5 92 70.5q54 27 122 35l36 161h59l-36 -158q40 -2 70 -10q30 -8 41 -18l0 -129h-72v90q-8 6 -23 9q-15 3 -29 4l-95 -423h11q45 0 79.5 19q34.5 19 55.5 48zM168 222q0 -54 20.5 -94.5q20.5 -40.5 63.5 -57.5l93 406q-81 -17 -129 -82.5t-48 -171.5z" />
<glyph unicode="&#163;" horiz-adv-x="600" d="M65 381h95q-3 15 -5.5 26.5q-2.5 11.5 -4.5 23.5q-2 12 -3 26q-1 14 -1 34q0 50 16.5 91q16.5 41 50 70q33.5 29 85 44.5q51.5 15.5 121.5 15.5q69 0 119 -9.5q50 -9.5 79 -23.5l-37 -172h-64l27 124q-20 8 -51 17.5q-31 9.5 -85 9.5q-41 0 -70 -13q-29 -13 -47.5 -34.5q-18.5 -21.5 -27 -50q-8.5 -28.5 -8.5 -58.5q0 -29 3.5 -56.5q3.5 -27.5 11.5 -64.5l173 0l-11 -52h-153q1 -7 1 -14q0 -7 0 -15q0 -17 -2 -35.5q-2 -18.5 -8 -38.5q-5 -15 -13 -32.5q-8 -17.5 -22 -36.5q-14 -19 -34 -38q-20 -19 -48 -36l299 0l24 113h64l-40 -196h-511l6 33q77 27 121.5 71q44.5 44 56.5 94q4 17 6 34q2 17 2 35q0 15 -1.5 30.5q-1.5 15.5 -3.5 31.5l-121 0z" />
<glyph unicode="&#164;" horiz-adv-x="600" d="M40 171l93 81l38 12q-16 17 -22 37.5q-6 20.5 -6 44.5q0 23 7 44q7 21 21 38l-38 12l-92 82l61 56l92 -83l14 -34q20 13 42.5 20q22.5 7 49.5 7q56 -2 92 -27l14 34l91 82l62 -56l-92 -81l-38 -11q14 -17 20.5 -38q6.5 -21 7.5 -45q0 -49 -28 -83l38 -11l92 -82l-63 -56l-91 82l-13 34q-38 -24 -92 -24q-27 0 -50 6.5q-23 6.5 -45 17.5l-11 -33l-93 -82zM300 264q41 0 68 23q27 23 27 59q0 36 -27 60q-27 24 -68 24q-41 0 -68 -24q-27 -24 -27 -60q0 -36 27 -59t68 -23z" />
<glyph unicode="&#165;" horiz-adv-x="600" d="M502 700h250l-11 -50h-86l-243 -315h159l-12 -52h-181l-13 -63h181l-11 -52h-181l-25 -118h85l-11 -50h-290l11 50h93l25 118h-181l11 52h181l13 63h-181l12 52h158l-127 315h-91l11 50h300l-11 -50h-86l106 -301l225 301l-91 0z" />
<glyph unicode="&#166;" horiz-adv-x="266" d="M103 190h59v-320h-59zM162 380h-59v320l59 0z" />
<glyph unicode="&#167;" horiz-adv-x="585" d="M248 -38q19 0 43 5q24 5 45 16.5q21 11.5 35.5 29q14.5 17.5 14.5 43.5q0 25 -20 40.5q-20 15.5 -50.5 27.5q-30.5 12 -65.5 23.5q-35 11.5 -65.5 27.5q-30.5 16 -50.5 39.5q-20 23.5 -20 60.5q0 34 16.5 61q16.5 27 42.5 48q26 21 58 37q32 16 63 28q-36 17 -60.5 41.5q-24.5 24.5 -24.5 66.5q0 40 19.5 69q19.5 29 51 48q31.5 19 69.5 28.5q38 9.5 76 9.5q60 0 102.5 -6.5q42.5 -6.5 74.5 -20.5l-20 -98h-72l14 63q-26 18 -81 18q-18 0 -39.5 -4q-21.5 -4 -40.5 -14q-19 -10 -32 -26.5q-13 -16.5 -13 -40.5q0 -25 20 -41.5q20 -16.5 50 -30q30 -13.5 65.5 -26q35.5 -12.5 65.5 -29q30 -16.5 50 -39.5q20 -23 20 -56q0 -35 -17.5 -62q-17.5 -27 -44 -49q-26.5 -22 -58 -38q-31.5 -16 -60.5 -28q36 -16 61 -38q25 -22 25 -57q0 -45 -24.5 -77.5q-24.5 -32.5 -62 -53q-37.5 -20.5 -82 -30.5q-44.5 -10 -85.5 -10q-32 0 -61 4.5q-29 4.5 -52.5 11q-23.5 6.5 -40 14.5q-16.5 8 -22.5 16l23 100h72l-14 -74q11 -8 37.5 -18q26.5 -10 64.5 -10zt0 0zM362 203q15 6 35.5 17.5q20.5 11.5 39 28q18.5 16.5 31 36.5q12.5 20 12.5 42q0 20 -12 35q-12 15 -31.5 26.5q-19.5 11.5 -44.5 21q-25 9.5 -50 18.5q-20 -8 -41 -19q-21 -11 -38.5 -26q-17.5 -15 -28.5 -33.5q-11 -18.5 -11 -40.5q0 -21 11.5 -37q11.5 -16 30.5 -28.5q19 -12.5 44 -22t53 -18.5z" />
<glyph unicode="&#168;" horiz-adv-x="544" d="M167 688q0 29 17.5 46.5q17.5 17.5 46.5 17.5q28 0 45.5 -17.5q17.5 -17.5 17.5 -46.5q0 -27 -17.5 -44.5q-17.5 -17.5 -45.5 -17.5q-29 0 -46.5 17.5q-17.5 17.5 -17.5 44.5zt0 0zM414 688q0 29 18 46.5q18 17.5 46 17.5q29 0 46 -17.5q17 -17.5 17 -46.5q0 -27 -17 -44.5q-17 -17.5 -46 -17.5q-28 0 -46 17.5t-18 44.5z" />
<glyph unicode="&#169;" horiz-adv-x="907" d="M78 290q0 83 31 148.5q31 65.5 83 110.5q52 45 120 69q68 24 141 24q73 0 139.5 -24q66.5 -24 117 -69q50.5 -45 80 -110.5q29.5 -65.5 29.5 -148.5q0 -83 -29.5 -148.5q-29.5 -65.5 -80 -110.5q-50.5 -45 -117 -69q-66.5 -24 -139.5 -24q-81 0 -149.5 24q-68.5 24 -119 69q-50.5 45 -78.5 110.5q-28 65.5 -28 148.5zt0 0zM132 290q0 -69 24 -125q24 -56 67 -95.5q43 -39.5 102 -61.5q59 -22 128 -22q70 0 127.5 22q57.5 22 98.5 61.5q41 39.5 63.5 95.5q22.5 56 22.5 125q0 69 -24 125q-24 56 -66 96q-42 40 -99 61.5q-57 21.5 -123 21.5q-74 0 -133 -22q-59 -22 -101 -61.5q-42 -39.5 -64.5 -95.5q-22.5 -56 -22.5 -125zt0 0zM545 207h46v-100q-20 -14 -49 -19.5q-29 -5.5 -61 -5.5q-54 0 -99.5 13.5q-45.5 13.5 -78.5 40q-33 26.5 -51.5 65.5q-18.5 39 -18.5 90q0 52 20.5 91q20.5 39 53.5 65q33 26 75 39.5q42 13.5 85 13.5q45 0 75 -5.5q30 -5.5 53 -16.5l0 -109h-50v78q-3 2 -11.5 4q-8.5 2 -18.5 3.5q-10 1.5 -21 2.5q-11 1 -19 1q-63 0 -98.5 -44.5q-35.5 -44.5 -35.5 -122.5q0 -33 8 -63.5q8 -30.5 25.5 -53.5q17.5 -23 45.5 -36.5q28 -13.5 67 -13.5q21 0 37 5q16 5 21 9z" />
<glyph unicode="&#170;" horiz-adv-x="492" d="M303 451q-6 -10 -19 -22.5q-13 -12.5 -32 -24q-19 -11.5 -42.5 -19q-23.5 -7.5 -51.5 -7.5q-57 0 -87 30.5q-30 30.5 -30 84.5q0 49 18.5 89.5q18.5 40.5 49.5 69.5q31 29 70 44.5q39 15.5 80 15.5q42 0 66 -11.5q24 -11.5 33 -27.5l18 27h72l-62 -268h56v-46h-135v65zM189 429q38 0 70 19.5q32 19.5 55 44.5l31 142q-7 11 -25.5 20q-18.5 9 -38.5 9q-27 0 -53 -10q-26 -10 -46.5 -30q-20.5 -20 -33 -51q-12.5 -31 -12.5 -73q0 -30 13.5 -50.5t39.5 -20.5z" />
<glyph unicode="&#171;" horiz-adv-x="520" d="M253 259l235 206l24 -20l-157 -187l85 -181l-31 -21zM34 259l285 208l25 -21l-194 -189l122 -181l-35 -22z" />
<glyph unicode="&#172;" horiz-adv-x="600" d="M50 388h478v-190h-72v126l-406 0z" />
<glyph unicode="&#173;" horiz-adv-x="475" d="M96 314h316l-13 -64l-316 0z" />
<glyph unicode="&#174;" horiz-adv-x="785" d="M108 451q0 64 23 114q23 50 62 84q39 34 90.5 51.5q51.5 17.5 108.5 17.5q59 0 111 -17.5q52 -17.5 90.5 -51.5q38.5 -34 61 -84q22.5 -50 22.5 -114q0 -65 -23 -114.5q-23 -49.5 -62.5 -83.5q-39.5 -34 -91 -51.5q-51.5 -17.5 -108.5 -17.5q-56 0 -107 17.5q-51 17.5 -90.5 51.5q-39.5 34 -63 83.5q-23.5 49.5 -23.5 114.5zt0 0zM156 451q0 -52 19.5 -93.5q19.5 -41.5 52 -71q32.5 -29.5 75 -45q42.5 -15.5 89.5 -15.5q49 0 92 15.5q43 15.5 75.5 44.5q32.5 29 51 70.5q18.5 41.5 18.5 94.5q0 52 -19.5 93.5q-19.5 41.5 -52 70.5q-32.5 29 -75.5 45q-43 16 -90 16q-50 0 -93 -16q-43 -16 -75 -45q-32 -29 -50 -70.5q-18 -41.5 -18 -93.5zt0 0zM355 343h40v-34h-140v34h39v231h-39v34h44q20 0 48 2q28 2 46 2q25 0 48.5 -4.5q23.5 -4.5 41 -15q17.5 -10.5 28 -26.5q10.5 -16 10.5 -38q0 -31 -21.5 -51.5q-21.5 -20.5 -52.5 -29.5l73 -104h27v-34h-77l-76 134h-39zM388 579q-13 0 -19.5 -0.5q-6.5 -0.5 -13.5 -2.5l0 -103h35q65 0 65 55q0 26 -19 38.5t-48 12.5z" />
<glyph unicode="&#175;" horiz-adv-x="444" d="M151 668l12 55h288l-12 -55z" />
<glyph unicode="&#176;" horiz-adv-x="474" d="M101 571q0 31 11 57q11 26 31 44.5q20 18.5 47.5 29q27.5 10.5 60.5 10.5q66 0 108.5 -35.5q42.5 -35.5 42.5 -105.5q0 -66 -42.5 -103.5q-42.5 -37.5 -108.5 -37.5q-33 0 -60.5 9.5q-27.5 9.5 -47.5 28q-20 18.5 -31 44.5q-11 26 -11 59zt0 0zM161 571q0 -40 26 -65.5q26 -25.5 64 -25.5q43 0 67 23.5q24 23.5 24 67.5q0 42 -24.5 66.5q-24.5 24.5 -66.5 24.5q-43 0 -66.5 -24.5t-23.5 -66.5z" />
<glyph unicode="&#177;" horiz-adv-x="600" d="M78 491h212v209h60v-209h212v-54h-212v-153h-60v153h-212zM78 231h484v-54l-484 0z" />
<glyph unicode="&#178;" horiz-adv-x="480" d="M202 637h-64l26 124q16 10 32.5 19q16.5 9 36.5 16q20 7 45.5 11q25.5 4 60.5 4q71 0 101 -27.5q30 -27.5 30 -71.5q0 -38 -20.5 -72.5q-20.5 -34.5 -59 -67q-38.5 -32.5 -93.5 -64q-55 -31.5 -124 -61.5l0 -6l35 6h172l15 68h64l-27 -131h-361l12 63q55 27 107.5 58.5q52.5 31.5 93 65q40.5 33.5 65.5 68.5q25 35 25 68q0 26 -17.5 40q-17.5 14 -58.5 14q-41 0 -72 -14z" />
<glyph unicode="&#179;" horiz-adv-x="480" d="M255 424q31 0 53 9q22 9 36 22.5q14 13.5 21 30.5q7 17 7 33q0 12 -4 22.5q-4 10.5 -14.5 19q-10.5 8.5 -30 13q-19.5 4.5 -49.5 4.5h-38l6 32l178 144h-191l-20 -94h-64l31 144h334l-11 -50l-171 -132v-1l34 4q18 0 37 -6.5q19 -6.5 34.5 -18.5q15.5 -12 25 -30q9.5 -18 9.5 -42q0 -31 -13.5 -58.5q-13.5 -27.5 -41 -48q-27.5 -20.5 -70.5 -32.5q-43 -12 -102 -12q-46 0 -90 14q-44 14 -70 37l15 72h92l-10 -54q8 -7 26.5 -14.5t50.5 -7.5z" />
<glyph unicode="&#180;" horiz-adv-x="482" d="M361 750h126v-41l-196 -117l-28 23z" />
<glyph unicode="&#181;" horiz-adv-x="600" d="M108 -200h-108l149 671h-69v54h182l-69 -298q-8 -35 -13 -64q-5 -29 -5 -50q0 -28 15.5 -42q15.5 -14 44.5 -14q18 0 39 6q21 6 43.5 21q22.5 15 46 39.5q23.5 24.5 45.5 60.5l63 334l98 8l-92 -472h81v-54h-164v110h-5q-38 -63 -93 -91.5q-55 -28.5 -107 -28.5q-23 0 -44 5q-21 5 -38 21z" />
<glyph unicode="&#182;" horiz-adv-x="592" d="M444 94q0 -67 -12 -109.5q-12 -42.5 -33 -68q-21 -25.5 -49.5 -38q-28.5 -12.5 -61.5 -18.5q-23 -32 -53 -48q-30 -16 -59 -24l-23 33q25 9 46 22.5q21 13.5 36 36q15 22.5 23.5 57.5q8.5 35 8.5 87v286q-36 0 -71.5 10q-35.5 10 -64 32.5q-28.5 22.5 -46.5 59q-18 36.5 -18 88.5q0 42 14 78.5q14 36.5 42 63.5q28 27 70.5 42.5q42.5 15.5 99.5 15.5h235v-50h-84zM310 -94q35 13 52.5 56q17.5 43 17.5 132v556h-49v-626q0 -40 -4 -68.5t-17 -49.5z" />
<glyph unicode="&#183;" horiz-adv-x="269" d="M58 308q0 31 21 49q21 18 56 18q35 0 57 -18q22 -18 22 -49q0 -30 -22 -48q-22 -18 -57 -18q-35 0 -56 18t-21 48z" />
<glyph unicode="&#184;" horiz-adv-x="498" d="M194 -61q31 -1 50.5 -5q19.5 -4 31 -12q11.5 -8 15.5 -20q4 -12 4 -29q0 -30 -20.5 -49q-20.5 -19 -51.5 -29.5q-31 -10.5 -67 -14.5q-36 -4 -67 -4l0 32q21 1 41.5 3q20.5 2 36.5 7q16 5 25.5 14q9.5 9 9.5 25q0 10 -2.5 17.5q-2.5 7.5 -10.5 12q-8 4.5 -22 7.5q-14 3 -37 5l42 102l51 0z" />
<glyph unicode="&#185;" horiz-adv-x="480" d="M423 384h-316l11 50h113l65 309l-107 -37l-12 45l132 53h91l-78 -370l112 0z" />
<glyph unicode="&#186;" horiz-adv-x="481" d="M42 501q0 46 20 84.5q20 38.5 53 66.5q33 28 76 44q43 16 90 16q77 0 117.5 -36q40.5 -36 40.5 -93q0 -52 -21.5 -91.5q-21.5 -39.5 -55.5 -66q-34 -26.5 -76.5 -40q-42.5 -13.5 -84.5 -13.5q-33 0 -62 9.5q-29 9.5 -50.5 26.5q-21.5 17 -34 40.5q-12.5 23.5 -12.5 52.5zt0 0zM137 499q0 -17 4 -33q4 -16 12.5 -28.5q8.5 -12.5 22.5 -20q14 -7.5 34 -7.5q24 0 48 11q24 11 43 34q19 23 31 58q12 35 12 83q0 15 -3.5 29q-3.5 14 -11.5 25q-8 11 -22.5 17.5q-14.5 6.5 -35.5 6.5q-24 0 -48 -13.5q-24 -13.5 -43 -36.5q-19 -23 -31 -55.5t-12 -69.5z" />
<glyph unicode="&#187;" horiz-adv-x="520" d="M52 56l-25 21l164 192l-80 176l34 20l147 -206zM220 54l-26 22l203 192l-117 178l33 21l198 -208z" />
<glyph unicode="&#188;" horiz-adv-x="1013" d="M376 280h-316l11 50h113l65 309l-107 -37l-12 45l132 53h91l-78 -370h112zM844 717l41 -38l-657 -686l-39 39zM877 -2h-240l11 50h89l14 69h-250l11 50l302 251h85l-53 -251h95l-11 -50h-95l-14 -69h67zM799 342l-213 -175l176 0z" />
<glyph unicode="&#189;" horiz-adv-x="1001" d="M376 280h-316l11 50h113l65 309l-107 -37l-12 45l132 53h91l-78 -370h112zM824 717l41 -38l-657 -686l-39 39zM673 251h-64l26 124q16 10 32.5 19q16.5 9 36.5 16q20 7 45.5 11q25.5 4 60.5 4q71 0 101 -27.5q30 -27.5 30 -71.5q0 -38 -20.5 -72.5q-20.5 -34.5 -59 -67q-38.5 -32.5 -93.5 -64q-55 -31.5 -124 -61.5l0 -6l35 6h172l15 68h64l-27 -131h-361l12 63q55 27 107.5 58.5q52.5 31.5 93 65q40.5 33.5 65.5 68.5q25 35 25 68q0 26 -17.5 40q-17.5 14 -58.5 14q-41 0 -72 -14z" />
<glyph unicode="&#190;" horiz-adv-x="1054" d="M234 320q31 0 53 9q22 9 36 22.5q14 13.5 21 30.5q7 17 7 33q0 12 -4 22.5q-4 10.5 -14.5 19q-10.5 8.5 -30 13q-19.5 4.5 -49.5 4.5h-38l6 32l178 144h-191l-20 -94h-64l31 144h334l-11 -50l-171 -132v-1l34 4q18 0 37 -6.5q19 -6.5 34.5 -18.5q15.5 -12 25 -30q9.5 -18 9.5 -42q0 -31 -13.5 -58.5q-13.5 -27.5 -41 -48q-27.5 -20.5 -70.5 -32.5q-43 -12 -102 -12q-46 0 -90 14q-44 14 -70 37l15 72h92l-10 -54q8 -7 26.5 -14.5q18.5 -7.5 50.5 -7.5zt0 0zM864 717l41 -38l-657 -686l-39 39zM918 -2h-240l11 50h89l14 69h-250l11 50l302 251h85l-53 -251h95l-11 -50h-95l-14 -69h67zM840 342l-213 -175l176 0z" />
<glyph unicode="&#191;" horiz-adv-x="521" d="M326 -44h96l-25 -121q-48 -25 -91 -34q-43 -9 -97 -9q-97 0 -148 41q-51 41 -51 122q0 48 19.5 92q19.5 44 56 79.5q36.5 35.5 88.5 60.5q52 25 117 35l21 100h64l-30 -142q-224 -51 -224 -229q0 -105 98 -105q35 0 55.5 6q20.5 6 31.5 11zM449 446q0 -31 -21 -49q-21 -18 -56 -18q-35 0 -57 18q-22 18 -22 49q0 30 22 48q22 18 57 18q35 0 56 -18t21 -48z" />
<glyph unicode="&#192;" horiz-adv-x="745" d="M193 0h-243l12 56h76l394 644h106l98 -644h74l-12 -56h-283l12 56h89l-27 176h-264l-106 -176h86zM260 288h224l-31 231q-1 3 -1 19.5q0 16.5 -1 36.5q-1 22 -1 50l-4 0l-54 -108zM538 793l-13 -24l-256 72v40l123 33z" />
<glyph unicode="&#193;" horiz-adv-x="745" d="M193 0h-243l12 56h76l394 644h106l98 -644h74l-12 -56h-283l12 56h89l-27 176h-264l-106 -176h86zM260 288h224l-31 231q-1 3 -1 19.5q0 16.5 -1 36.5q-1 22 -1 50l-4 0l-54 -108zM595 914l123 -33v-40l-256 -72l-13 24z" />
<glyph unicode="&#194;" horiz-adv-x="745" d="M193 0h-243l12 56h76l394 644h106l98 -644h74l-12 -56h-283l12 56h89l-27 176h-264l-106 -176h86zM260 288h224l-31 231q-1 3 -1 19.5q0 16.5 -1 36.5q-1 22 -1 50l-4 0l-54 -108zM334 761l-16 20l192 133h31l121 -130l-18 -22l-142 56z" />
<glyph unicode="&#195;" horiz-adv-x="745" d="M193 0h-243l12 56h76l394 644h106l98 -644h74l-12 -56h-283l12 56h89l-27 176h-264l-106 -176h86zM260 288h224l-31 231q-1 3 -1 19.5q0 16.5 -1 36.5q-1 22 -1 50l-4 0l-54 -108zM667 843q-36 -38 -65.5 -53q-29.5 -15 -58.5 -15q-21 0 -39.5 6.5q-18.5 6.5 -36.5 14q-18 7.5 -35 14q-17 6.5 -35 6.5q-14 0 -31 -6.5q-17 -6.5 -35 -23.5l-22 36q43 42 76 57q33 15 62 15q21 0 39 -6q18 -6 35 -13.5q17 -7.5 33.5 -13.5q16.5 -6 34.5 -6q14 0 30.5 5q16.5 5 33.5 19z" />
<glyph unicode="&#196;" horiz-adv-x="745" d="M193 0h-243l12 56h76l394 644h106l98 -644h74l-12 -56h-283l12 56h89l-27 176h-264l-106 -176h86zM260 288h224l-31 231q-1 3 -1 19.5q0 16.5 -1 36.5q-1 22 -1 50l-4 0l-54 -108zM292 796q0 29 18.5 43.5q18.5 14.5 46.5 14.5q29 0 48 -14.5q19 -14.5 19 -43.5q0 -26 -19 -40q-19 -14 -48 -14q-28 0 -46.5 14q-18.5 14 -18.5 40zt0 0zM544 796q0 29 19 43.5q19 14.5 46 14.5q29 0 48 -14.5q19 -14.5 19 -43.5q0 -26 -19 -40q-19 -14 -48 -14q-27 0 -46 14t-19 40z" />
<glyph unicode="&#197;" horiz-adv-x="745" d="M193 0h-243l12 56h76l394 644h106l98 -644h74l-12 -56h-283l12 56h89l-27 176h-264l-106 -176h86zM260 288h224l-31 231q-1 3 -1 19.5q0 16.5 -1 36.5q-1 22 -1 50l-4 0l-54 -108zM360 788q0 41 38 63.5q38 22.5 93 22.5q22 0 44 -5q22 -5 39.5 -15q17.5 -10 28.5 -25.5q11 -15.5 11 -37.5q0 -20 -10 -35q-10 -15 -27.5 -26q-17.5 -11 -40 -16.5q-22.5 -5.5 -46.5 -5.5q-58 0 -94 21q-36 21 -36 59zt0 0zM435 788q0 -17 14.5 -27.5q14.5 -10.5 34.5 -10.5q29 0 42 10q13 10 13 27q0 26 -15 35.5q-15 9.5 -36 9.5q-27 0 -40 -12.5t-13 -31.5z" />
<glyph unicode="&#198;" horiz-adv-x="1018" d="M1042 700l-35 -164h-64l19 86l-16 22h-242l-55 -259h169l18 15l9 42h64l-36 -171h-64l9 42l-12 16h-169l-58 -273h262l24 20l21 98h64l-37 -174h-546l12 56h88l42 197h-213l-170 -197h94l-12 -56h-258l12 56h81l515 588h-60l12 56zM342 309h179l64 301h-2l-60 -93z" />
<glyph unicode="&#199;" horiz-adv-x="688" d="M559 184h64l-33 -157q-16 -9 -37.5 -15.5q-21.5 -6.5 -46 -11.5q-24.5 -5 -49.5 -8q-25 -3 -49 -4l-27 -52q34 -1 54.5 -6.5q20.5 -5.5 31.5 -15q11 -9.5 14.5 -22q3.5 -12.5 3.5 -27.5q0 -30 -23 -49q-23 -19 -57.5 -29.5q-34.5 -10.5 -73.5 -14.5q-39 -4 -71 -4l0 33q22 1 44 3.5q22 2.5 39.5 7.5q17.5 5 28.5 13.5q11 8.5 11 22.5q0 10 -1.5 18q-1.5 8 -8.5 13.5q-7 5.5 -21 9q-14 3.5 -39 4.5l39 97q-85 5 -138.5 29q-53.5 24 -84 60.5q-30.5 36.5 -42 81.5q-11.5 45 -11.5 91q0 100 30 184.5q30 84.5 86 146q56 61.5 136.5 95.5q80.5 34 182.5 34q73 0 118.5 -10.5q45.5 -10.5 80.5 -27.5l-37 -171h-64l23 105l-10 20q-11 5 -37 12.5q-26 7.5 -78 7.5q-68 0 -124 -28q-56 -28 -96.5 -79.5q-40.5 -51.5 -63 -124q-22.5 -72.5 -22.5 -161.5q0 -43 11.5 -80q11.5 -37 37 -64.5q25.5 -27.5 66 -43q40.5 -15.5 97.5 -15.5q36 0 65.5 5.5q29.5 5.5 43.5 14.5l18 19z" />
<glyph unicode="&#200;" horiz-adv-x="635" d="M659 700l-35 -164h-64l19 86l-16 22h-245l-55 -259h169l18 15l9 42h64l-36 -171h-64l9 42l-12 16h-169l-58 -273h262l24 20l21 98h64l-37 -174h-548l11 56h91l125 588h-91l12 56zM511 793l-13 -24l-256 72v40l123 33z" />
<glyph unicode="&#201;" horiz-adv-x="635" d="M659 700l-35 -164h-64l19 86l-16 22h-245l-55 -259h169l18 15l9 42h64l-36 -171h-64l9 42l-12 16h-169l-58 -273h262l24 20l21 98h64l-37 -174h-548l11 56h91l125 588h-91l12 56zM495 914l123 -33v-40l-256 -72l-13 24z" />
<glyph unicode="&#202;" horiz-adv-x="635" d="M659 700l-35 -164h-64l19 86l-16 22h-245l-55 -259h169l18 15l9 42h64l-36 -171h-64l9 42l-12 16h-169l-58 -273h262l24 20l21 98h64l-37 -174h-548l11 56h91l125 588h-91l12 56zM281 761l-16 20l192 133h31l121 -130l-18 -22l-142 56z" />
<glyph unicode="&#203;" horiz-adv-x="635" d="M659 700l-35 -164h-64l19 86l-16 22h-245l-55 -259h169l18 15l9 42h64l-36 -171h-64l9 42l-12 16h-169l-58 -273h262l24 20l21 98h64l-37 -174h-548l11 56h91l125 588h-91l12 56zM233 796q0 29 18.5 43.5q18.5 14.5 46.5 14.5q29 0 48 -14.5q19 -14.5 19 -43.5q0 -26 -19 -40q-19 -14 -48 -14q-28 0 -46.5 14q-18.5 14 -18.5 40zt0 0zM485 796q0 29 19 43.5q19 14.5 46 14.5q29 0 48 -14.5q19 -14.5 19 -43.5q0 -26 -19 -40q-19 -14 -48 -14q-27 0 -46 14t-19 40z" />
<glyph unicode="&#204;" horiz-adv-x="389" d="M293 0h-294l12 56h91l125 588h-91l12 56h294l-12 -56h-91l-125 -588h91zM419 793l-13 -24l-256 72v40l123 33z" />
<glyph unicode="&#205;" horiz-adv-x="389" d="M293 0h-294l12 56h91l125 588h-91l12 56h294l-12 -56h-91l-125 -588h91zM400 914l123 -33v-40l-256 -72l-13 24z" />
<glyph unicode="&#206;" horiz-adv-x="389" d="M293 0h-294l12 56h91l125 588h-91l12 56h294l-12 -56h-91l-125 -588h91zM148 761l-16 20l192 133h31l121 -130l-18 -22l-142 56z" />
<glyph unicode="&#207;" horiz-adv-x="389" d="M293 0h-294l12 56h91l125 588h-91l12 56h294l-12 -56h-91l-125 -588h91zM97 796q0 29 18.5 43.5q18.5 14.5 46.5 14.5q29 0 48 -14.5q19 -14.5 19 -43.5q0 -26 -19 -40q-19 -14 -48 -14q-28 0 -46.5 14q-18.5 14 -18.5 40zt0 0zM349 796q0 29 19 43.5q19 14.5 46 14.5q29 0 48 -14.5q19 -14.5 19 -43.5q0 -26 -19 -40q-19 -14 -48 -14q-27 0 -46 14t-19 40z" />
<glyph unicode="&#208;" horiz-adv-x="774" d="M-21 0l11 56h91l58 274h-101l11 54h101l56 260h-91l12 56h123q19 0 45 1q26 1 53.5 2.5q27.5 1.5 53 3q25.5 1.5 42.5 1.5q98 0 159 -22.5q61 -22.5 95 -57.5q34 -35 46 -78q12 -43 12 -85q0 -105 -29.5 -192.5q-29.5 -87.5 -87.5 -150q-58 -62.5 -144 -97q-86 -34.5 -199 -34.5q-16 0 -39.5 1.5q-23.5 1.5 -49.5 3q-26 1.5 -52 3q-26 1.5 -47 1.5zM417 652q-28 0 -55 -1q-27 -1 -43 -4l-56 -263h177l-11 -54h-178l-59 -279q6 -1 20.5 -1.5q14.5 -0.5 31 -1q16.5 -0.5 31.5 -1q15 -0.5 21 -0.5q96 0 160.5 37q64.5 37 103 96.5q38.5 59.5 55 135.5q16.5 76 16.5 154q0 36 -8.5 69q-8.5 33 -32.5 58q-24 25 -65.5 40t-107.5 15z" />
<glyph unicode="&#209;" horiz-adv-x="810" d="M640 700h243l-12 -56h-91l-140 -656h-57l-302 549l-24 77h-4l-5 -78l-102 -480h87l-12 -56h-242l11 56h91l125 588h-91l12 56h191l258 -474l34 -83h5l12 86l88 415h-87zM692 843q-36 -38 -65.5 -53q-29.5 -15 -58.5 -15q-21 0 -39.5 6.5q-18.5 6.5 -36.5 14q-18 7.5 -35 14q-17 6.5 -35 6.5q-14 0 -31 -6.5q-17 -6.5 -35 -23.5l-22 36q43 42 76 57q33 15 62 15q21 0 39 -6q18 -6 35 -13.5q17 -7.5 33.5 -13.5q16.5 -6 34.5 -6q14 0 30.5 5q16.5 5 33.5 19z" />
<glyph unicode="&#210;" horiz-adv-x="820" d="M76 283q0 81 25.5 158.5q25.5 77.5 78 137.5q52.5 60 132.5 96.5q80 36.5 188 36.5q67 0 123 -19.5q56 -19.5 95.5 -56.5q39.5 -37 61.5 -89q22 -52 22 -116q0 -80 -22 -159.5q-22 -79.5 -71 -142.5q-49 -63 -126 -102q-77 -39 -186 -39q-59 0 -116 17q-57 17 -103 53q-46 36 -74 91.5q-28 55.5 -28 133.5zt0 0zM201 282q0 -64 17.5 -109q17.5 -45 46 -73.5q28.5 -28.5 65.5 -42q37 -13.5 75 -13.5q78 0 130 35.5q52 35.5 83.5 91.5q31.5 56 45 124.5q13.5 68.5 13.5 134.5q0 111 -53 168.5q-53 57.5 -149 57.5q-71 0 -123 -33q-52 -33 -85.5 -86q-33.5 -53 -49.5 -120q-16 -67 -16 -135zt0 0zM608 793l-13 -24l-256 72v40l123 33z" />
<glyph unicode="&#211;" horiz-adv-x="820" d="M76 283q0 81 25.5 158.5q25.5 77.5 78 137.5q52.5 60 132.5 96.5q80 36.5 188 36.5q67 0 123 -19.5q56 -19.5 95.5 -56.5q39.5 -37 61.5 -89q22 -52 22 -116q0 -80 -22 -159.5q-22 -79.5 -71 -142.5q-49 -63 -126 -102q-77 -39 -186 -39q-59 0 -116 17q-57 17 -103 53q-46 36 -74 91.5q-28 55.5 -28 133.5zt0 0zM201 282q0 -64 17.5 -109q17.5 -45 46 -73.5q28.5 -28.5 65.5 -42q37 -13.5 75 -13.5q78 0 130 35.5q52 35.5 83.5 91.5q31.5 56 45 124.5q13.5 68.5 13.5 134.5q0 111 -53 168.5q-53 57.5 -149 57.5q-71 0 -123 -33q-52 -33 -85.5 -86q-33.5 -53 -49.5 -120q-16 -67 -16 -135zt0 0zM512 914l123 -33v-40l-256 -72l-13 24z" />
<glyph unicode="&#212;" horiz-adv-x="820" d="M76 283q0 81 25.5 158.5q25.5 77.5 78 137.5q52.5 60 132.5 96.5q80 36.5 188 36.5q67 0 123 -19.5q56 -19.5 95.5 -56.5q39.5 -37 61.5 -89q22 -52 22 -116q0 -80 -22 -159.5q-22 -79.5 -71 -142.5q-49 -63 -126 -102q-77 -39 -186 -39q-59 0 -116 17q-57 17 -103 53q-46 36 -74 91.5q-28 55.5 -28 133.5zt0 0zM201 282q0 -64 17.5 -109q17.5 -45 46 -73.5q28.5 -28.5 65.5 -42q37 -13.5 75 -13.5q78 0 130 35.5q52 35.5 83.5 91.5q31.5 56 45 124.5q13.5 68.5 13.5 134.5q0 111 -53 168.5q-53 57.5 -149 57.5q-71 0 -123 -33q-52 -33 -85.5 -86q-33.5 -53 -49.5 -120q-16 -67 -16 -135zt0 0zM357 761l-16 20l192 133h31l121 -130l-18 -22l-142 56z" />
<glyph unicode="&#213;" horiz-adv-x="820" d="M76 283q0 81 25.5 158.5q25.5 77.5 78 137.5q52.5 60 132.5 96.5q80 36.5 188 36.5q67 0 123 -19.5q56 -19.5 95.5 -56.5q39.5 -37 61.5 -89q22 -52 22 -116q0 -80 -22 -159.5q-22 -79.5 -71 -142.5q-49 -63 -126 -102q-77 -39 -186 -39q-59 0 -116 17q-57 17 -103 53q-46 36 -74 91.5q-28 55.5 -28 133.5zt0 0zM201 282q0 -64 17.5 -109q17.5 -45 46 -73.5q28.5 -28.5 65.5 -42q37 -13.5 75 -13.5q78 0 130 35.5q52 35.5 83.5 91.5q31.5 56 45 124.5q13.5 68.5 13.5 134.5q0 111 -53 168.5q-53 57.5 -149 57.5q-71 0 -123 -33q-52 -33 -85.5 -86q-33.5 -53 -49.5 -120q-16 -67 -16 -135zt0 0zM694 843q-36 -38 -65.5 -53q-29.5 -15 -58.5 -15q-21 0 -39.5 6.5q-18.5 6.5 -36.5 14q-18 7.5 -35 14q-17 6.5 -35 6.5q-14 0 -31 -6.5q-17 -6.5 -35 -23.5l-22 36q43 42 76 57q33 15 62 15q21 0 39 -6q18 -6 35 -13.5q17 -7.5 33.5 -13.5q16.5 -6 34.5 -6q14 0 30.5 5q16.5 5 33.5 19z" />
<glyph unicode="&#214;" horiz-adv-x="820" d="M76 283q0 81 25.5 158.5q25.5 77.5 78 137.5q52.5 60 132.5 96.5q80 36.5 188 36.5q67 0 123 -19.5q56 -19.5 95.5 -56.5q39.5 -37 61.5 -89q22 -52 22 -116q0 -80 -22 -159.5q-22 -79.5 -71 -142.5q-49 -63 -126 -102q-77 -39 -186 -39q-59 0 -116 17q-57 17 -103 53q-46 36 -74 91.5q-28 55.5 -28 133.5zt0 0zM201 282q0 -64 17.5 -109q17.5 -45 46 -73.5q28.5 -28.5 65.5 -42q37 -13.5 75 -13.5q78 0 130 35.5q52 35.5 83.5 91.5q31.5 56 45 124.5q13.5 68.5 13.5 134.5q0 111 -53 168.5q-53 57.5 -149 57.5q-71 0 -123 -33q-52 -33 -85.5 -86q-33.5 -53 -49.5 -120q-16 -67 -16 -135zt0 0zM299 796q0 29 18.5 43.5q18.5 14.5 46.5 14.5q29 0 48 -14.5q19 -14.5 19 -43.5q0 -26 -19 -40q-19 -14 -48 -14q-28 0 -46.5 14q-18.5 14 -18.5 40zt0 0zM551 796q0 29 19 43.5q19 14.5 46 14.5q29 0 48 -14.5q19 -14.5 19 -43.5q0 -26 -19 -40q-19 -14 -48 -14q-27 0 -46 14t-19 40z" />
<glyph unicode="&#215;" horiz-adv-x="600" d="M118 205l156 139l-154 138l44 39l155 -138l156 140l44 -39l-158 -139l160 -142l-44 -40l-159 143l-156 -140z" />
<glyph unicode="&#216;" horiz-adv-x="840" d="M76 283q0 81 25.5 158.5q25.5 77.5 78 137.5q52.5 60 132.5 96.5q80 36.5 188 36.5q59 0 109 -15q50 -15 88 -44l82 90l43 -37l-84 -91q31 -35 47.5 -81.5q16.5 -46.5 16.5 -102.5q0 -80 -22 -159.5q-22 -79.5 -71 -142.5q-49 -63 -126 -102q-77 -39 -186 -39q-50 0 -98.5 11.5q-48.5 11.5 -90.5 37.5l-86 -94l-40 39l81 88q-40 36 -63.5 88.5q-23.5 52.5 -23.5 124.5zt0 0zM201 282q0 -83 29 -138l404 441q-54 71 -159 71q-71 0 -123 -33q-52 -33 -85.5 -86q-33.5 -53 -49.5 -120q-16 -67 -16 -135zt0 0zM677 430q0 57 -15 101l-398 -432q29 -29 66 -42q37 -13 75 -13q78 0 130 35.5q52 35.5 83.5 91.5q31.5 56 45 124.5t13.5 134.5z" />
<glyph unicode="&#217;" horiz-adv-x="752" d="M657 244q-28 -132 -105.5 -192.5q-77.5 -60.5 -204.5 -60.5q-67 0 -114 15.5q-47 15.5 -77 42.5q-30 27 -43.5 64.5q-13.5 37.5 -13.5 82.5q0 37 9 79l78 369h-91l12 56h284l-12 -56h-81l-78 -367q-4 -20 -6.5 -37q-2.5 -17 -2.5 -34q0 -72 40 -110q40 -38 124 -38q176 0 217 188l86 398h-82l12 56h237l-12 -56h-91zM528 793l-13 -24l-256 72v40l123 33z" />
<glyph unicode="&#218;" horiz-adv-x="752" d="M657 244q-28 -132 -105.5 -192.5q-77.5 -60.5 -204.5 -60.5q-67 0 -114 15.5q-47 15.5 -77 42.5q-30 27 -43.5 64.5q-13.5 37.5 -13.5 82.5q0 37 9 79l78 369h-91l12 56h284l-12 -56h-81l-78 -367q-4 -20 -6.5 -37q-2.5 -17 -2.5 -34q0 -72 40 -110q40 -38 124 -38q176 0 217 188l86 398h-82l12 56h237l-12 -56h-91zM625 914l123 -33v-40l-256 -72l-13 24z" />
<glyph unicode="&#219;" horiz-adv-x="752" d="M657 244q-28 -132 -105.5 -192.5q-77.5 -60.5 -204.5 -60.5q-67 0 -114 15.5q-47 15.5 -77 42.5q-30 27 -43.5 64.5q-13.5 37.5 -13.5 82.5q0 37 9 79l78 369h-91l12 56h284l-12 -56h-81l-78 -367q-4 -20 -6.5 -37q-2.5 -17 -2.5 -34q0 -72 40 -110q40 -38 124 -38q176 0 217 188l86 398h-82l12 56h237l-12 -56h-91zM364 761l-16 20l192 133h31l121 -130l-18 -22l-142 56z" />
<glyph unicode="&#220;" horiz-adv-x="752" d="M657 244q-28 -132 -105.5 -192.5q-77.5 -60.5 -204.5 -60.5q-67 0 -114 15.5q-47 15.5 -77 42.5q-30 27 -43.5 64.5q-13.5 37.5 -13.5 82.5q0 37 9 79l78 369h-91l12 56h284l-12 -56h-81l-78 -367q-4 -20 -6.5 -37q-2.5 -17 -2.5 -34q0 -72 40 -110q40 -38 124 -38q176 0 217 188l86 398h-82l12 56h237l-12 -56h-91zM303 796q0 29 18.5 43.5q18.5 14.5 46.5 14.5q29 0 48 -14.5q19 -14.5 19 -43.5q0 -26 -19 -40q-19 -14 -48 -14q-28 0 -46.5 14q-18.5 14 -18.5 40zt0 0zM555 796q0 29 19 43.5q19 14.5 46 14.5q29 0 48 -14.5q19 -14.5 19 -43.5q0 -26 -19 -40q-19 -14 -48 -14q-27 0 -46 14t-19 40z" />
<glyph unicode="&#221;" horiz-adv-x="727" d="M575 700h254l-12 -56h-85l-287 -347l-51 -241h83l-12 -56h-286l12 56h91l51 240l-152 348h-91l12 56h299l-12 -56h-84l114 -296l236 296h-92zM614 914l123 -33v-40l-256 -72l-13 24z" />
<glyph unicode="&#222;" horiz-adv-x="650" d="M115 644l12 56h292l-12 -56h-89l-10 -47q26 2 54.5 3q28.5 1 53.5 1q132 0 191 -43.5q59 -43.5 59 -124.5q0 -65 -25.5 -113q-25.5 -48 -72 -80.5q-46.5 -32.5 -112 -48.5q-65.5 -16 -145.5 -16q-6 0 -19 0q-13 0 -27 0.5q-14 0.5 -27 1q-13 0.5 -19 1.5l-26 -122h109l-12 -56h-311l11 56h91l125 588zM379 545q-53 0 -83 -6l-65 -303q5 -2 16.5 -2.5q11.5 -0.5 24 -1.5q12.5 -1 24.5 -1q12 0 18 0q57 0 100 15q43 15 71 41.5q28 26.5 42 63q14 36.5 14 80.5q0 56 -36.5 85t-125.5 29z" />
<glyph unicode="&#223;" horiz-adv-x="675" d="M311 395q0 72 59.5 121.5q59.5 49.5 162.5 76.5q1 5 1 8.5q0 3.5 0 8.5q0 20 -6.5 38.5q-6.5 18.5 -19.5 33q-13 14.5 -32.5 23q-19.5 8.5 -45.5 8.5q-25 0 -52.5 -6q-27.5 -6 -51.5 -23q-24 -17 -43 -47.5q-19 -30.5 -28 -80.5l-88 -511q-13 -74 -41.5 -120.5q-28.5 -46.5 -61 -73q-32.5 -26.5 -63.5 -38q-31 -11.5 -49 -16.5l-17 43q13 6 33 16q20 10 40 30.5q20 20.5 37 53.5q17 33 25 85l71 446h-79v54h91l5 25q13 65 46.5 106q33.5 41 75.5 64q42 23 87.5 31.5q45.5 8.5 81.5 8.5q50 0 85 -11.5q35 -11.5 56.5 -31q21.5 -19.5 31.5 -45.5q10 -26 10 -55q0 -11 -1.5 -24.5q-1.5 -13.5 -3.5 -24.5q-42 -6 -81 -16q-39 -10 -68.5 -27q-29.5 -17 -47.5 -42q-18 -25 -18 -60q0 -26 14 -45q14 -19 35.5 -36q21.5 -17 46.5 -34q25 -17 46.5 -38q21.5 -21 35.5 -48.5q14 -27.5 14 -64.5q0 -38 -18.5 -68.5q-18.5 -30.5 -49.5 -52.5q-31 -22 -73 -34q-42 -12 -88 -12q-47 0 -83 11q-36 11 -58 25l29 58q23 -17 53 -28.5q30 -11.5 58 -11.5q24 0 47 5.5q23 5.5 40.5 16.5q17.5 11 28 28q10.5 17 10.5 40q0 31 -14 52.5q-14 21.5 -35 39q-21 17.5 -45.5 33q-24.5 15.5 -45.5 34q-21 18.5 -35 43t-14 59.5z" />
<glyph unicode="&#224;" horiz-adv-x="591" d="M220 54q19 0 42 11.5q23 11.5 45.5 29.5q22.5 18 42 40.5q19.5 22.5 32.5 44.5l53 272q-10 13 -29.5 21q-19.5 8 -44.5 8q-51 0 -90 -28.5q-39 -28.5 -66 -74.5q-27 -46 -41 -102.5q-14 -56.5 -14 -111.5q0 -110 70 -110zt0 0zM370 117q-10 -17 -28 -39q-18 -22 -43.5 -41.5q-25.5 -19.5 -57.5 -33q-32 -13.5 -69 -13.5q-57 0 -91.5 39q-34.5 39 -34.5 117q0 74 21 144q21 70 61 124.5q40 54.5 98.5 87.5q58.5 33 134.5 33q28 0 53.5 -10.5q25.5 -10.5 36.5 -23.5l16 24h77l-94 -471h82v-54h-177l21 117zM420 615l-28 -23l-196 117v41l126 0z" />
<glyph unicode="&#225;" horiz-adv-x="591" d="M220 54q19 0 42 11.5q23 11.5 45.5 29.5q22.5 18 42 40.5q19.5 22.5 32.5 44.5l53 272q-10 13 -29.5 21q-19.5 8 -44.5 8q-51 0 -90 -28.5q-39 -28.5 -66 -74.5q-27 -46 -41 -102.5q-14 -56.5 -14 -111.5q0 -110 70 -110zt0 0zM370 117q-10 -17 -28 -39q-18 -22 -43.5 -41.5q-25.5 -19.5 -57.5 -33q-32 -13.5 -69 -13.5q-57 0 -91.5 39q-34.5 39 -34.5 117q0 74 21 144q21 70 61 124.5q40 54.5 98.5 87.5q58.5 33 134.5 33q28 0 53.5 -10.5q25.5 -10.5 36.5 -23.5l16 24h77l-94 -471h82v-54h-177l21 117zM427 750h126v-41l-196 -117l-28 23z" />
<glyph unicode="&#226;" horiz-adv-x="591" d="M220 54q19 0 42 11.5q23 11.5 45.5 29.5q22.5 18 42 40.5q19.5 22.5 32.5 44.5l53 272q-10 13 -29.5 21q-19.5 8 -44.5 8q-51 0 -90 -28.5q-39 -28.5 -66 -74.5q-27 -46 -41 -102.5q-14 -56.5 -14 -111.5q0 -110 70 -110zt0 0zM370 117q-10 -17 -28 -39q-18 -22 -43.5 -41.5q-25.5 -19.5 -57.5 -33q-32 -13.5 -69 -13.5q-57 0 -91.5 39q-34.5 39 -34.5 117q0 74 21 144q21 70 61 124.5q40 54.5 98.5 87.5q58.5 33 134.5 33q28 0 53.5 -10.5q25.5 -10.5 36.5 -23.5l16 24h77l-94 -471h82v-54h-177l21 117zM268 619l-32 17l195 196h29l56 -195l-32 -18l-70 112z" />
<glyph unicode="&#227;" horiz-adv-x="591" d="M220 54q19 0 42 11.5q23 11.5 45.5 29.5q22.5 18 42 40.5q19.5 22.5 32.5 44.5l53 272q-10 13 -29.5 21q-19.5 8 -44.5 8q-51 0 -90 -28.5q-39 -28.5 -66 -74.5q-27 -46 -41 -102.5q-14 -56.5 -14 -111.5q0 -110 70 -110zt0 0zM370 117q-10 -17 -28 -39q-18 -22 -43.5 -41.5q-25.5 -19.5 -57.5 -33q-32 -13.5 -69 -13.5q-57 0 -91.5 39q-34.5 39 -34.5 117q0 74 21 144q21 70 61 124.5q40 54.5 98.5 87.5q58.5 33 134.5 33q28 0 53.5 -10.5q25.5 -10.5 36.5 -23.5l16 24h77l-94 -471h82v-54h-177l21 117zM559 705q-36 -34 -66.5 -46.5q-30.5 -12.5 -55.5 -12.5q-20 0 -38 5.5q-18 5.5 -35 12q-17 6.5 -33 12q-16 5.5 -33 5.5q-14 0 -29.5 -5.5q-15.5 -5.5 -33.5 -20.5l-22 32q42 36 74.5 49q32.5 13 58.5 13q20 0 37.5 -5.5q17.5 -5.5 33.5 -11.5q16 -6 32 -11.5q16 -5.5 33 -5.5q14 0 29 4.5q15 4.5 32 16.5z" />
<glyph unicode="&#228;" horiz-adv-x="591" d="M220 54q19 0 42 11.5q23 11.5 45.5 29.5q22.5 18 42 40.5q19.5 22.5 32.5 44.5l53 272q-10 13 -29.5 21q-19.5 8 -44.5 8q-51 0 -90 -28.5q-39 -28.5 -66 -74.5q-27 -46 -41 -102.5q-14 -56.5 -14 -111.5q0 -110 70 -110zt0 0zM370 117q-10 -17 -28 -39q-18 -22 -43.5 -41.5q-25.5 -19.5 -57.5 -33q-32 -13.5 -69 -13.5q-57 0 -91.5 39q-34.5 39 -34.5 117q0 74 21 144q21 70 61 124.5q40 54.5 98.5 87.5q58.5 33 134.5 33q28 0 53.5 -10.5q25.5 -10.5 36.5 -23.5l16 24h77l-94 -471h82v-54h-177l21 117zM192 688q0 29 17.5 46.5q17.5 17.5 46.5 17.5q28 0 45.5 -17.5q17.5 -17.5 17.5 -46.5q0 -27 -17.5 -44.5q-17.5 -17.5 -45.5 -17.5q-29 0 -46.5 17.5q-17.5 17.5 -17.5 44.5zt0 0zM439 688q0 29 18 46.5q18 17.5 46 17.5q29 0 46 -17.5q17 -17.5 17 -46.5q0 -27 -17 -44.5q-17 -17.5 -46 -17.5q-28 0 -46 17.5t-18 44.5z" />
<glyph unicode="&#229;" horiz-adv-x="591" d="M220 54q19 0 42 11.5q23 11.5 45.5 29.5q22.5 18 42 40.5q19.5 22.5 32.5 44.5l53 272q-10 13 -29.5 21q-19.5 8 -44.5 8q-51 0 -90 -28.5q-39 -28.5 -66 -74.5q-27 -46 -41 -102.5q-14 -56.5 -14 -111.5q0 -110 70 -110zt0 0zM370 117q-10 -17 -28 -39q-18 -22 -43.5 -41.5q-25.5 -19.5 -57.5 -33q-32 -13.5 -69 -13.5q-57 0 -91.5 39q-34.5 39 -34.5 117q0 74 21 144q21 70 61 124.5q40 54.5 98.5 87.5q58.5 33 134.5 33q28 0 53.5 -10.5q25.5 -10.5 36.5 -23.5l16 24h77l-94 -471h82v-54h-177l21 117zM294 717q0 43 32 72.5q32 29.5 81 29.5q45 0 75.5 -26.5q30.5 -26.5 30.5 -72.5q0 -21 -9 -39q-9 -18 -23.5 -31q-14.5 -13 -34 -20.5q-19.5 -7.5 -40.5 -7.5q-51 0 -81.5 25.5q-30.5 25.5 -30.5 69.5zt0 0zM354 719q0 -26 15 -39.5q15 -13.5 33 -13.5q22 0 36.5 12q14.5 12 14.5 38q0 29 -14 44q-14 15 -36 15q-26 0 -37.5 -15t-11.5 -41z" />
<glyph unicode="&#230;" horiz-adv-x="817" d="M219 57q24 0 46 10.5q22 10.5 40 27q18 16.5 31.5 37.5q13.5 21 21.5 41q0 16 1.5 39.5q1.5 23.5 3.5 40.5q-24 3 -45 3q-44 0 -76.5 -10.5q-32.5 -10.5 -54 -27.5q-21.5 -17 -32 -38.5q-10.5 -21.5 -10.5 -43.5q0 -44 22.5 -61.5q22.5 -17.5 51.5 -17.5zt0 0zM366 111q-30 -55 -78 -88q-48 -33 -113 -33q-30 0 -56 9.5q-26 9.5 -45.5 27q-19.5 17.5 -31 42.5q-11.5 25 -11.5 57q0 37 19.5 68q19.5 31 56.5 53.5q37 22.5 89.5 35q52.5 12.5 118.5 12.5q14 0 28 0q14 0 29 -2q11 35 17.5 65q6.5 30 6.5 54q0 36 -17 56q-17 20 -56 20q-16 0 -42.5 -4.5q-26.5 -4.5 -46.5 -15.5l0 -92h-96v107q48 24 101.5 38q53.5 14 116.5 14q62 0 93 -16q31 -16 38 -42q35 27 79.5 42.5q44.5 15.5 97.5 15.5q27 0 51 -6q24 -6 41.5 -18.5q17.5 -12.5 28 -31q10.5 -18.5 10.5 -43.5q0 -75 -77 -118.5q-77 -43.5 -250 -55.5q-5 -18 -6.5 -34.5q-1.5 -16.5 -1.5 -32.5q0 -63 33.5 -100.5q33.5 -37.5 96.5 -37.5q22 0 42 7q20 7 37 18q17 11 31 24q14 13 24 24l31 -35q-12 -21 -32.5 -40q-20.5 -19 -47 -33.5q-26.5 -14.5 -59 -23q-32.5 -8.5 -68.5 -8.5q-72 0 -118 29.5q-46 29.5 -63 91.5zM632 488q-47 0 -87.5 -40q-40.5 -40 -68.5 -140q105 3 163 35q58 32 58 89q0 22 -13 39t-52 17z" />
<glyph unicode="&#231;" horiz-adv-x="472" d="M436 99q-25 -47 -69.5 -74.5q-44.5 -27.5 -108.5 -33.5l-24 -52q31 -1 50.5 -5q19.5 -4 31 -12q11.5 -8 15.5 -20q4 -12 4 -29q0 -30 -20 -49q-20 -19 -51 -29.5q-31 -10.5 -67 -14.5q-36 -4 -68 -4l0 32q21 1 41.5 3q20.5 2 36.5 7q16 5 25.5 14q9.5 9 9.5 25q0 10 -2.5 17.5q-2.5 7.5 -10.5 12q-8 4.5 -22 7.5q-14 3 -37 5l38 92q-39 3 -69.5 19.5q-30.5 16.5 -51.5 42.5q-21 26 -32 59.5q-11 33.5 -11 70.5q0 78 21 143q21 65 61.5 111.5q40.5 46.5 98.5 72q58 25.5 132 25.5q42 0 78 -10.5q36 -10.5 51 -27.5l-30 -119h-70l21 90q-8 7 -26.5 10q-18.5 3 -33.5 3q-45 0 -81.5 -19.5q-36.5 -19.5 -63 -54.5q-26.5 -35 -40.5 -84.5q-14 -49.5 -14 -110.5q0 -72 33 -113q33 -41 87 -41q45 0 79.5 19q34.5 19 55.5 48z" />
<glyph unicode="&#232;" horiz-adv-x="501" d="M435 96q-11 -20 -30 -39q-19 -19 -45 -34q-26 -15 -58 -24q-32 -9 -69 -9q-86 0 -137.5 48.5q-51.5 48.5 -51.5 136.5q0 75 22 141q22 66 62 114q40 48 96.5 76.5q56.5 28.5 125.5 28.5q27 0 51 -6.5q24 -6.5 42 -19.5q18 -13 28 -32q10 -19 10 -44q0 -72 -76 -116q-76 -44 -249 -56q-4 -18 -6 -34q-2 -16 -2 -32q0 -63 32.5 -100.5q32.5 -37.5 95.5 -37.5q20 0 39.5 6q19.5 6 37.5 15.5q18 9.5 32.5 21.5q14.5 12 23.5 23zM317 488q-47 0 -86 -41.5q-39 -41.5 -67 -138.5q106 3 162.5 35q56.5 32 56.5 86q0 11 -3 21.5q-3 10.5 -10.5 19q-7.5 8.5 -20 13.5q-12.5 5 -32.5 5zt0 0zM369 615l-28 -23l-196 117v41l126 0z" />
<glyph unicode="&#233;" horiz-adv-x="501" d="M435 96q-11 -20 -30 -39q-19 -19 -45 -34q-26 -15 -58 -24q-32 -9 -69 -9q-86 0 -137.5 48.5q-51.5 48.5 -51.5 136.5q0 75 22 141q22 66 62 114q40 48 96.5 76.5q56.5 28.5 125.5 28.5q27 0 51 -6.5q24 -6.5 42 -19.5q18 -13 28 -32q10 -19 10 -44q0 -72 -76 -116q-76 -44 -249 -56q-4 -18 -6 -34q-2 -16 -2 -32q0 -63 32.5 -100.5q32.5 -37.5 95.5 -37.5q20 0 39.5 6q19.5 6 37.5 15.5q18 9.5 32.5 21.5q14.5 12 23.5 23zM317 488q-47 0 -86 -41.5q-39 -41.5 -67 -138.5q106 3 162.5 35q56.5 32 56.5 86q0 11 -3 21.5q-3 10.5 -10.5 19q-7.5 8.5 -20 13.5q-12.5 5 -32.5 5zt0 0zM393 750h126v-41l-196 -117l-28 23z" />
<glyph unicode="&#234;" horiz-adv-x="501" d="M435 96q-11 -20 -30 -39q-19 -19 -45 -34q-26 -15 -58 -24q-32 -9 -69 -9q-86 0 -137.5 48.5q-51.5 48.5 -51.5 136.5q0 75 22 141q22 66 62 114q40 48 96.5 76.5q56.5 28.5 125.5 28.5q27 0 51 -6.5q24 -6.5 42 -19.5q18 -13 28 -32q10 -19 10 -44q0 -72 -76 -116q-76 -44 -249 -56q-4 -18 -6 -34q-2 -16 -2 -32q0 -63 32.5 -100.5q32.5 -37.5 95.5 -37.5q20 0 39.5 6q19.5 6 37.5 15.5q18 9.5 32.5 21.5q14.5 12 23.5 23zM317 488q-47 0 -86 -41.5q-39 -41.5 -67 -138.5q106 3 162.5 35q56.5 32 56.5 86q0 11 -3 21.5q-3 10.5 -10.5 19q-7.5 8.5 -20 13.5q-12.5 5 -32.5 5zt0 0zM233 619l-32 17l195 196h29l56 -195l-32 -18l-70 112z" />
<glyph unicode="&#235;" horiz-adv-x="501" d="M435 96q-11 -20 -30 -39q-19 -19 -45 -34q-26 -15 -58 -24q-32 -9 -69 -9q-86 0 -137.5 48.5q-51.5 48.5 -51.5 136.5q0 75 22 141q22 66 62 114q40 48 96.5 76.5q56.5 28.5 125.5 28.5q27 0 51 -6.5q24 -6.5 42 -19.5q18 -13 28 -32q10 -19 10 -44q0 -72 -76 -116q-76 -44 -249 -56q-4 -18 -6 -34q-2 -16 -2 -32q0 -63 32.5 -100.5q32.5 -37.5 95.5 -37.5q20 0 39.5 6q19.5 6 37.5 15.5q18 9.5 32.5 21.5q14.5 12 23.5 23zM317 488q-47 0 -86 -41.5q-39 -41.5 -67 -138.5q106 3 162.5 35q56.5 32 56.5 86q0 11 -3 21.5q-3 10.5 -10.5 19q-7.5 8.5 -20 13.5q-12.5 5 -32.5 5zt0 0zM166 688q0 29 17.5 46.5q17.5 17.5 46.5 17.5q28 0 45.5 -17.5q17.5 -17.5 17.5 -46.5q0 -27 -17.5 -44.5q-17.5 -17.5 -45.5 -17.5q-29 0 -46.5 17.5q-17.5 17.5 -17.5 44.5zt0 0zM413 688q0 29 18 46.5q18 17.5 46 17.5q29 0 46 -17.5q17 -17.5 17 -46.5q0 -27 -17 -44.5q-17 -17.5 -46 -17.5q-28 0 -46 17.5t-18 44.5z" />
<glyph unicode="&#236;" horiz-adv-x="307" d="M76 471v54h181l-104 -471h82v-54h-193l107 471zM262 615l-28 -23l-196 117v41l126 0z" />
<glyph unicode="&#237;" horiz-adv-x="307" d="M76 471v54h181l-104 -471h82v-54h-193l107 471zM248 750h126v-41l-196 -117l-28 23z" />
<glyph unicode="&#238;" horiz-adv-x="307" d="M76 471v54h181l-104 -471h82v-54h-193l107 471zM103 619l-32 17l195 196h29l56 -195l-32 -18l-70 112z" />
<glyph unicode="&#239;" horiz-adv-x="307" d="M76 471v54h181l-104 -471h82v-54h-193l107 471zM18 688q0 29 17.5 46.5q17.5 17.5 46.5 17.5q28 0 45.5 -17.5q17.5 -17.5 17.5 -46.5q0 -27 -17.5 -44.5q-17.5 -17.5 -45.5 -17.5q-29 0 -46.5 17.5q-17.5 17.5 -17.5 44.5zt0 0zM265 688q0 29 18 46.5q18 17.5 46 17.5q29 0 46 -17.5q17 -17.5 17 -46.5q0 -27 -17 -44.5q-17 -17.5 -46 -17.5q-28 0 -46 17.5t-18 44.5z" />
<glyph unicode="&#240;" horiz-adv-x="548" d="M251 620l119 51q-18 23 -48.5 36q-30.5 13 -59.5 21l0 22h102q50 -11 83 -44l109 47l23 -41l-103 -45q17 -21 35 -67q18 -46 18 -110q0 -107 -26.5 -198.5q-26.5 -91.5 -72 -158.5q-45.5 -67 -106 -105q-60.5 -38 -129.5 -38q-79 0 -121 48.5q-42 48.5 -42 138.5q0 64 23 127.5q23 63.5 65 114q42 50.5 101.5 81.5q59.5 31 133.5 31q20 0 40 -4.5q20 -4.5 33 -12.5q0 42 -8.5 69q-8.5 27 -23.5 49l-120 -52zM345 484q-59 0 -99.5 -31.5q-40.5 -31.5 -65 -78.5q-24.5 -47 -35.5 -102q-11 -55 -11 -102q0 -23 3 -47q3 -24 12.5 -43q9.5 -19 27 -31q17.5 -12 45.5 -12q36 0 72.5 32.5q36.5 32.5 66 89.5q29.5 57 48 135q18.5 78 18.5 169q-23 13 -42 17t-40 4z" />
<glyph unicode="&#241;" horiz-adv-x="610" d="M425 299q8 32 14 60.5q6 28.5 6 55.5q0 23 -12 39.5q-12 16.5 -36 16.5q-30 0 -57.5 -12q-27.5 -12 -50.5 -29.5q-23 -17.5 -40.5 -36.5q-17.5 -19 -27.5 -33l-78 -360h-97l99 471h-69v54h178l-23 -104h5q42 51 94 82.5q52 31.5 112 31.5q54 0 77.5 -26.5q23.5 -26.5 23.5 -68.5q0 -23 -5.5 -58q-5.5 -35 -13.5 -65l-63 -263h82v-54h-87h-98zM555 705q-36 -34 -66.5 -46.5q-30.5 -12.5 -55.5 -12.5q-20 0 -38 5.5q-18 5.5 -35 12q-17 6.5 -33 12q-16 5.5 -33 5.5q-14 0 -29.5 -5.5q-15.5 -5.5 -33.5 -20.5l-22 32q42 36 74.5 49q32.5 13 58.5 13q20 0 37.5 -5.5q17.5 -5.5 33.5 -11.5q16 -6 32 -11.5q16 -5.5 33 -5.5q14 0 29 4.5q15 4.5 32 16.5z" />
<glyph unicode="&#242;" horiz-adv-x="564" d="M44 195q0 56 18.5 116.5q18.5 60.5 56 109.5q37.5 49 94 81.5q56.5 32.5 132.5 32.5q87 0 131 -51q44 -51 44 -149q0 -69 -21 -131q-21 -62 -59 -109q-38 -47 -91 -76q-53 -29 -118 -29q-85 0 -136 52.5q-51 52.5 -51 152.5zt0 0zM323 488q-35 0 -62 -15q-27 -15 -46 -40.5q-19 -25.5 -32 -58q-13 -32.5 -21 -68q-8 -35.5 -11 -70q-3 -34.5 -3 -65.5q0 -58 27.5 -96q27.5 -38 75.5 -38q38 0 68.5 28q30.5 28 52 71.5q21.5 43.5 33 99.5q11.5 56 11.5 115q0 62 -22.5 99.5q-22.5 37.5 -70.5 37.5zt0 0zM406 615l-28 -23l-196 117v41l126 0z" />
<glyph unicode="&#243;" horiz-adv-x="564" d="M44 195q0 56 18.5 116.5q18.5 60.5 56 109.5q37.5 49 94 81.5q56.5 32.5 132.5 32.5q87 0 131 -51q44 -51 44 -149q0 -69 -21 -131q-21 -62 -59 -109q-38 -47 -91 -76q-53 -29 -118 -29q-85 0 -136 52.5q-51 52.5 -51 152.5zt0 0zM323 488q-35 0 -62 -15q-27 -15 -46 -40.5q-19 -25.5 -32 -58q-13 -32.5 -21 -68q-8 -35.5 -11 -70q-3 -34.5 -3 -65.5q0 -58 27.5 -96q27.5 -38 75.5 -38q38 0 68.5 28q30.5 28 52 71.5q21.5 43.5 33 99.5q11.5 56 11.5 115q0 62 -22.5 99.5q-22.5 37.5 -70.5 37.5zt0 0zM381 750h126v-41l-196 -117l-28 23z" />
<glyph unicode="&#244;" horiz-adv-x="564" d="M44 195q0 56 18.5 116.5q18.5 60.5 56 109.5q37.5 49 94 81.5q56.5 32.5 132.5 32.5q87 0 131 -51q44 -51 44 -149q0 -69 -21 -131q-21 -62 -59 -109q-38 -47 -91 -76q-53 -29 -118 -29q-85 0 -136 52.5q-51 52.5 -51 152.5zt0 0zM323 488q-35 0 -62 -15q-27 -15 -46 -40.5q-19 -25.5 -32 -58q-13 -32.5 -21 -68q-8 -35.5 -11 -70q-3 -34.5 -3 -65.5q0 -58 27.5 -96q27.5 -38 75.5 -38q38 0 68.5 28q30.5 28 52 71.5q21.5 43.5 33 99.5q11.5 56 11.5 115q0 62 -22.5 99.5q-22.5 37.5 -70.5 37.5zt0 0zM240 619l-32 17l195 196h29l56 -195l-32 -18l-70 112z" />
<glyph unicode="&#245;" horiz-adv-x="564" d="M44 195q0 56 18.5 116.5q18.5 60.5 56 109.5q37.5 49 94 81.5q56.5 32.5 132.5 32.5q87 0 131 -51q44 -51 44 -149q0 -69 -21 -131q-21 -62 -59 -109q-38 -47 -91 -76q-53 -29 -118 -29q-85 0 -136 52.5q-51 52.5 -51 152.5zt0 0zM323 488q-35 0 -62 -15q-27 -15 -46 -40.5q-19 -25.5 -32 -58q-13 -32.5 -21 -68q-8 -35.5 -11 -70q-3 -34.5 -3 -65.5q0 -58 27.5 -96q27.5 -38 75.5 -38q38 0 68.5 28q30.5 28 52 71.5q21.5 43.5 33 99.5q11.5 56 11.5 115q0 62 -22.5 99.5q-22.5 37.5 -70.5 37.5zt0 0zM523 705q-36 -34 -66.5 -46.5q-30.5 -12.5 -55.5 -12.5q-20 0 -38 5.5q-18 5.5 -35 12q-17 6.5 -33 12q-16 5.5 -33 5.5q-14 0 -29.5 -5.5q-15.5 -5.5 -33.5 -20.5l-22 32q42 36 74.5 49q32.5 13 58.5 13q20 0 37.5 -5.5q17.5 -5.5 33.5 -11.5q16 -6 32 -11.5q16 -5.5 33 -5.5q14 0 29 4.5q15 4.5 32 16.5z" />
<glyph unicode="&#246;" horiz-adv-x="564" d="M44 195q0 56 18.5 116.5q18.5 60.5 56 109.5q37.5 49 94 81.5q56.5 32.5 132.5 32.5q87 0 131 -51q44 -51 44 -149q0 -69 -21 -131q-21 -62 -59 -109q-38 -47 -91 -76q-53 -29 -118 -29q-85 0 -136 52.5q-51 52.5 -51 152.5zt0 0zM323 488q-35 0 -62 -15q-27 -15 -46 -40.5q-19 -25.5 -32 -58q-13 -32.5 -21 -68q-8 -35.5 -11 -70q-3 -34.5 -3 -65.5q0 -58 27.5 -96q27.5 -38 75.5 -38q38 0 68.5 28q30.5 28 52 71.5q21.5 43.5 33 99.5q11.5 56 11.5 115q0 62 -22.5 99.5q-22.5 37.5 -70.5 37.5zt0 0zM166 688q0 29 17.5 46.5q17.5 17.5 46.5 17.5q28 0 45.5 -17.5q17.5 -17.5 17.5 -46.5q0 -27 -17.5 -44.5q-17.5 -17.5 -45.5 -17.5q-29 0 -46.5 17.5q-17.5 17.5 -17.5 44.5zt0 0zM413 688q0 29 18 46.5q18 17.5 46 17.5q29 0 46 -17.5q17 -17.5 17 -46.5q0 -27 -17 -44.5q-17 -17.5 -46 -17.5q-28 0 -46 17.5t-18 44.5z" />
<glyph unicode="&#247;" horiz-adv-x="600" d="M67 371h505v-54h-505zM241 534q0 31 21 49q21 18 56 18q35 0 57 -18q22 -18 22 -49q0 -30 -22 -48q-22 -18 -57 -18q-35 0 -56 18q-21 18 -21 48zt0 0zM241 153q0 31 21 49q21 18 56 18q35 0 57 -18q22 -18 22 -49q0 -30 -22 -48q-22 -18 -57 -18q-35 0 -56 18t-21 48z" />
<glyph unicode="&#248;" horiz-adv-x="564" d="M44 195q0 56 18.5 116q18.5 60 56 110q37.5 50 94 82q56.5 32 132.5 32q36 0 65.5 -8.5q29.5 -8.5 50.5 -26.5l78 86l43 -34l-87 -95q12 -24 18.5 -53.5q6.5 -29.5 6.5 -65.5q0 -69 -21 -132q-21 -63 -59 -111q-38 -48 -91 -76.5q-53 -28.5 -118 -28.5q-38 0 -69.5 9.5q-31.5 9.5 -55.5 30.5l-86 -94l-40 34l92 102q-28 50 -28 123zt0 0zM251 37q37 0 67.5 26.5q30.5 26.5 52 69.5q21.5 43 33 97.5q11.5 54.5 12.5 111.5l0 29l-253 -278q13 -28 36 -42q23 -14 52 -14zt0 0zM323 488q-52 0 -85.5 -31q-33.5 -31 -53 -76.5q-19.5 -45.5 -27.5 -99q-8 -53.5 -9 -98.5l0 -28l256 281q-11 24 -31.5 38t-49.5 14z" />
<glyph unicode="&#249;" horiz-adv-x="600" d="M540 54v-54h-184l21 118h-4q-15 -21 -37 -43.5q-22 -22.5 -49.5 -41q-27.5 -18.5 -60 -31q-32.5 -12.5 -68.5 -12.5q-46 0 -73 24.5q-27 24.5 -27 71.5q0 14 2.5 36.5q2.5 22.5 8.5 51.5l63 297h-69v54h180l-69 -299q-6 -26 -12 -55.5q-6 -29.5 -6 -57.5q0 -30 13 -44.5q13 -14.5 34 -14.5q34 0 64.5 16q30.5 16 55 37.5q24.5 21.5 41 44.5q16.5 23 24.5 38l67 335h95l-91 -471zM408 615l-28 -23l-196 117v41l126 0z" />
<glyph unicode="&#250;" horiz-adv-x="600" d="M540 54v-54h-184l21 118h-4q-15 -21 -37 -43.5q-22 -22.5 -49.5 -41q-27.5 -18.5 -60 -31q-32.5 -12.5 -68.5 -12.5q-46 0 -73 24.5q-27 24.5 -27 71.5q0 14 2.5 36.5q2.5 22.5 8.5 51.5l63 297h-69v54h180l-69 -299q-6 -26 -12 -55.5q-6 -29.5 -6 -57.5q0 -30 13 -44.5q13 -14.5 34 -14.5q34 0 64.5 16q30.5 16 55 37.5q24.5 21.5 41 44.5q16.5 23 24.5 38l67 335h95l-91 -471zM393 750h126v-41l-196 -117l-28 23z" />
<glyph unicode="&#251;" horiz-adv-x="600" d="M540 54v-54h-184l21 118h-4q-15 -21 -37 -43.5q-22 -22.5 -49.5 -41q-27.5 -18.5 -60 -31q-32.5 -12.5 -68.5 -12.5q-46 0 -73 24.5q-27 24.5 -27 71.5q0 14 2.5 36.5q2.5 22.5 8.5 51.5l63 297h-69v54h180l-69 -299q-6 -26 -12 -55.5q-6 -29.5 -6 -57.5q0 -30 13 -44.5q13 -14.5 34 -14.5q34 0 64.5 16q30.5 16 55 37.5q24.5 21.5 41 44.5q16.5 23 24.5 38l67 335h95l-91 -471zM241 619l-32 17l195 196h29l56 -195l-32 -18l-70 112z" />
<glyph unicode="&#252;" horiz-adv-x="600" d="M540 54v-54h-184l21 118h-4q-15 -21 -37 -43.5q-22 -22.5 -49.5 -41q-27.5 -18.5 -60 -31q-32.5 -12.5 -68.5 -12.5q-46 0 -73 24.5q-27 24.5 -27 71.5q0 14 2.5 36.5q2.5 22.5 8.5 51.5l63 297h-69v54h180l-69 -299q-6 -26 -12 -55.5q-6 -29.5 -6 -57.5q0 -30 13 -44.5q13 -14.5 34 -14.5q34 0 64.5 16q30.5 16 55 37.5q24.5 21.5 41 44.5q16.5 23 24.5 38l67 335h95l-91 -471zM181 688q0 29 17.5 46.5q17.5 17.5 46.5 17.5q28 0 45.5 -17.5q17.5 -17.5 17.5 -46.5q0 -27 -17.5 -44.5q-17.5 -17.5 -45.5 -17.5q-29 0 -46.5 17.5q-17.5 17.5 -17.5 44.5zt0 0zM428 688q0 29 18 46.5q18 17.5 46 17.5q29 0 46 -17.5q17 -17.5 17 -46.5q0 -27 -17 -44.5q-17 -17.5 -46 -17.5q-28 0 -46 17.5t-18 44.5z" />
<glyph unicode="&#253;" horiz-adv-x="508" d="M96 471h-61v54h149l78 -416v-55h8l27 52q17 37 35 79q18 42 35.5 84q17.5 42 32.5 82.5q15 40.5 25 76.5l-28 97h123v-54q-16 -44 -39.5 -102.5q-23.5 -58.5 -51.5 -122q-28 -63.5 -60 -129.5q-32 -66 -64.5 -125.5q-32.5 -59.5 -65 -109.5q-32.5 -50 -61.5 -82l-115 0v96h111q14 17 28.5 39q14.5 22 28.5 65l-49 0zM356 750h126v-41l-196 -117l-28 23z" />
<glyph unicode="&#254;" horiz-adv-x="599" d="M110 -150h76v-50h-186l196 896h-68v54h177l-71 -328h4q16 22 36 42.5q20 20.5 44.5 36.5q24.5 16 53 25q28.5 9 61.5 9q56 0 92 -37.5q36 -37.5 36 -119.5q0 -76 -25 -146q-25 -70 -68.5 -124q-43.5 -54 -102 -86q-58.5 -32 -125.5 -32q-18 0 -31 1q-13 1 -23 3.5q-10 2.5 -19.5 5.5q-9.5 3 -20.5 8zM380 471q-28 0 -53.5 -12q-25.5 -12 -46 -29.5q-20.5 -17.5 -35.5 -38q-15 -20.5 -22 -38.5l-65 -295q7 -6 14.5 -10.5q7.5 -4.5 17 -6.5q9.5 -2 22.5 -3q13 -1 32 -1q43 0 81.5 30q38.5 30 67.5 77.5q29 47.5 46.5 106.5q17.5 59 17.5 116q0 50 -19.5 77t-57.5 27z" />
<glyph unicode="&#255;" horiz-adv-x="508" d="M96 471h-61v54h149l78 -416v-55h8l27 52q17 37 35 79q18 42 35.5 84q17.5 42 32.5 82.5q15 40.5 25 76.5l-28 97h123v-54q-16 -44 -39.5 -102.5q-23.5 -58.5 -51.5 -122q-28 -63.5 -60 -129.5q-32 -66 -64.5 -125.5q-32.5 -59.5 -65 -109.5q-32.5 -50 -61.5 -82l-115 0v96h111q14 17 28.5 39q14.5 22 28.5 65l-49 0zM131 688q0 29 17.5 46.5q17.5 17.5 46.5 17.5q28 0 45.5 -17.5q17.5 -17.5 17.5 -46.5q0 -27 -17.5 -44.5q-17.5 -17.5 -45.5 -17.5q-29 0 -46.5 17.5q-17.5 17.5 -17.5 44.5zt0 0zM378 688q0 29 18 46.5q18 17.5 46 17.5q29 0 46 -17.5q17 -17.5 17 -46.5q0 -27 -17 -44.5q-17 -17.5 -46 -17.5q-28 0 -46 17.5t-18 44.5z" />
<glyph unicode="&#256;" horiz-adv-x="745" d="M193 0h-243l12 56h76l394 644h106l98 -644h74l-12 -56h-283l12 56h89l-27 176h-264l-106 -176h86zM260 288h224l-31 231q-1 3 -1 19.5q0 16.5 -1 36.5q-1 22 -1 50l-4 0l-54 -108zM318 787l12 64h340l-12 -64z" />
<glyph unicode="&#257;" horiz-adv-x="591" d="M220 54q19 0 42 11.5q23 11.5 45.5 29.5q22.5 18 42 40.5q19.5 22.5 32.5 44.5l53 272q-10 13 -29.5 21q-19.5 8 -44.5 8q-51 0 -90 -28.5q-39 -28.5 -66 -74.5q-27 -46 -41 -102.5q-14 -56.5 -14 -111.5q0 -110 70 -110zt0 0zM370 117q-10 -17 -28 -39q-18 -22 -43.5 -41.5q-25.5 -19.5 -57.5 -33q-32 -13.5 -69 -13.5q-57 0 -91.5 39q-34.5 39 -34.5 117q0 74 21 144q21 70 61 124.5q40 54.5 98.5 87.5q58.5 33 134.5 33q28 0 53.5 -10.5q25.5 -10.5 36.5 -23.5l16 24h77l-94 -471h82v-54h-177l21 117zM265 668l12 55h288l-12 -55z" />
<glyph unicode="&#258;" horiz-adv-x="745" d="M193 0h-243l12 56h76l394 644h106l98 -644h74l-12 -56h-283l12 56h89l-27 176h-264l-106 -176h86zM260 288h224l-31 231q-1 3 -1 19.5q0 16.5 -1 36.5q-1 22 -1 50l-4 0l-54 -108zM684 888q-10 -22 -29 -44.5q-19 -22.5 -44.5 -41q-25.5 -18.5 -57 -30.5q-31.5 -12 -66.5 -12q-26 0 -51 10.5q-25 10.5 -45 28.5q-20 18 -33 41.5q-13 23.5 -16 49.5l47 15q13 -28 40.5 -45.5q27.5 -17.5 63.5 -17.5q43 0 82.5 14q39.5 14 72.5 46z" />
<glyph unicode="&#259;" horiz-adv-x="591" d="M220 54q19 0 42 11.5q23 11.5 45.5 29.5q22.5 18 42 40.5q19.5 22.5 32.5 44.5l53 272q-10 13 -29.5 21q-19.5 8 -44.5 8q-51 0 -90 -28.5q-39 -28.5 -66 -74.5q-27 -46 -41 -102.5q-14 -56.5 -14 -111.5q0 -110 70 -110zt0 0zM370 117q-10 -17 -28 -39q-18 -22 -43.5 -41.5q-25.5 -19.5 -57.5 -33q-32 -13.5 -69 -13.5q-57 0 -91.5 39q-34.5 39 -34.5 117q0 74 21 144q21 70 61 124.5q40 54.5 98.5 87.5q58.5 33 134.5 33q28 0 53.5 -10.5q25.5 -10.5 36.5 -23.5l16 24h77l-94 -471h82v-54h-177l21 117zM556 756q-10 -24 -29 -47q-19 -23 -43.5 -41q-24.5 -18 -52.5 -29.5q-28 -11.5 -56 -11.5q-30 0 -52 10q-22 10 -37 28q-15 18 -24 42q-9 24 -13 51l32 14q11 -31 35.5 -50q24.5 -19 59.5 -19q50 0 87 14.5q37 14.5 66 50.5z" />
<glyph unicode="&#260;" horiz-adv-x="745" d="M193 0h-243l12 56h76l394 644h106l98 -644h74l-12 -56h-58q-50 -19 -83 -44q-33 -25 -33 -66q0 -27 15 -37.5q15 -10.5 48 -10.5q34 0 63 6l0 -31q-16 -11 -41 -19.5q-25 -8.5 -62 -8.5q-53 0 -86 19.5q-33 19.5 -33 63.5q0 23 11 42.5q11 19.5 29.5 35q18.5 15.5 43.5 28.5q25 13 52 22l-149 0l12 56h89l-27 176h-264l-106 -176h86zM260 288h224l-31 231l-3 106h-4l-54 -108z" />
<glyph unicode="&#261;" horiz-adv-x="591" d="M370 117q-10 -17 -28 -39q-18 -22 -43.5 -41.5q-25.5 -19.5 -57.5 -33q-32 -13.5 -69 -13.5q-57 0 -91.5 39q-34.5 39 -34.5 117q0 74 21 144q21 70 61 124.5q40 54.5 98.5 87.5q58.5 33 134.5 33q28 0 53.5 -10.5q25.5 -10.5 36.5 -23.5l16 24h77l-94 -471h82v-54h-8q-22 -7 -43 -17.5q-21 -10.5 -37.5 -25q-16.5 -14.5 -27 -33.5q-10.5 -19 -10.5 -42q0 -26 15 -42.5q15 -16.5 51 -16.5q11 0 21 2q10 2 25 7l0 -33q-17 -9 -41 -15q-24 -6 -44 -6q-66 0 -94 25q-28 25 -28 63q0 26 11.5 47.5q11.5 21.5 31.5 38q20 16.5 47 28.5q27 12 58 20l-104 0l21 117zM220 54q19 0 42 11.5q23 11.5 45.5 29.5q22.5 18 42 40.5q19.5 22.5 32.5 44.5l53 272q-10 13 -29.5 21q-19.5 8 -44.5 8q-51 0 -90 -28.5q-39 -28.5 -66 -74.5q-27 -46 -41 -102.5q-14 -56.5 -14 -111.5q0 -110 70 -110z" />
<glyph unicode="&#262;" horiz-adv-x="688" d="M559 184h64l-33 -157q-17 -9 -40.5 -16q-23.5 -7 -49.5 -12.5q-26 -5.5 -53 -8q-27 -2.5 -52 -2.5q-98 0 -160.5 23q-62.5 23 -97.5 60.5q-35 37.5 -48 84.5q-13 47 -13 96q0 100 30 184.5q30 84.5 86 146q56 61.5 136.5 95.5q80.5 34 182.5 34q73 0 118.5 -10.5q45.5 -10.5 80.5 -27.5l-37 -171h-64l23 105l-10 20q-11 5 -37 12.5q-26 7.5 -78 7.5q-68 0 -124 -28q-56 -28 -96.5 -79.5q-40.5 -51.5 -63 -124q-22.5 -72.5 -22.5 -161.5q0 -43 11.5 -80q11.5 -37 37 -64.5q25.5 -27.5 66 -43q40.5 -15.5 97.5 -15.5q36 0 65.5 5.5q29.5 5.5 43.5 14.5l18 19zM567 914l123 -33v-40l-256 -72l-13 24z" />
<glyph unicode="&#263;" horiz-adv-x="472" d="M436 99q-28 -52 -80 -80.5q-52 -28.5 -128 -28.5q-43 0 -77 15.5q-34 15.5 -58 41.5q-24 26 -36.5 61.5q-12.5 35.5 -12.5 74.5q0 78 21 143q21 65 61.5 111.5q40.5 46.5 98.5 72q58 25.5 132 25.5q42 0 78 -10.5q36 -10.5 51 -27.5l-30 -119h-70l21 90q-8 7 -26.5 10q-18.5 3 -33.5 3q-45 0 -81.5 -19.5q-36.5 -19.5 -63 -54.5q-26.5 -35 -40.5 -84.5q-14 -49.5 -14 -110.5q0 -72 33 -113.5q33 -41.5 87 -41.5q45 0 79.5 19.5q34.5 19.5 55.5 48.5zM394 750h126v-41l-196 -117l-28 23z" />
<glyph unicode="&#264;" horiz-adv-x="688" d="M559 184h64l-33 -157q-17 -9 -40.5 -16q-23.5 -7 -49.5 -12.5q-26 -5.5 -53 -8q-27 -2.5 -52 -2.5q-98 0 -160.5 23q-62.5 23 -97.5 60.5q-35 37.5 -48 84.5q-13 47 -13 96q0 100 30 184.5q30 84.5 86 146q56 61.5 136.5 95.5q80.5 34 182.5 34q73 0 118.5 -10.5q45.5 -10.5 80.5 -27.5l-37 -171h-64l23 105l-10 20q-11 5 -37 12.5q-26 7.5 -78 7.5q-68 0 -124 -28q-56 -28 -96.5 -79.5q-40.5 -51.5 -63 -124q-22.5 -72.5 -22.5 -161.5q0 -43 11.5 -80q11.5 -37 37 -64.5q25.5 -27.5 66 -43q40.5 -15.5 97.5 -15.5q36 0 65.5 5.5q29.5 5.5 43.5 14.5l18 19zM374 761l-16 20l192 133h31l121 -130l-18 -22l-142 56z" />
<glyph unicode="&#265;" horiz-adv-x="472" d="M436 99q-28 -52 -80 -80.5q-52 -28.5 -128 -28.5q-43 0 -77 15.5q-34 15.5 -58 41.5q-24 26 -36.5 61.5q-12.5 35.5 -12.5 74.5q0 78 21 143q21 65 61.5 111.5q40.5 46.5 98.5 72q58 25.5 132 25.5q42 0 78 -10.5q36 -10.5 51 -27.5l-30 -119h-70l21 90q-8 7 -26.5 10q-18.5 3 -33.5 3q-45 0 -81.5 -19.5q-36.5 -19.5 -63 -54.5q-26.5 -35 -40.5 -84.5q-14 -49.5 -14 -110.5q0 -72 33 -113.5q33 -41.5 87 -41.5q45 0 79.5 19.5q34.5 19.5 55.5 48.5zM227 619l-32 17l195 196h29l56 -195l-32 -18l-70 112z" />
<glyph unicode="&#268;" horiz-adv-x="688" d="M559 184h64l-33 -157q-17 -9 -40.5 -16q-23.5 -7 -49.5 -12.5q-26 -5.5 -53 -8q-27 -2.5 -52 -2.5q-98 0 -160.5 23q-62.5 23 -97.5 60.5q-35 37.5 -48 84.5q-13 47 -13 96q0 100 30 184.5q30 84.5 86 146q56 61.5 136.5 95.5q80.5 34 182.5 34q73 0 118.5 -10.5q45.5 -10.5 80.5 -27.5l-37 -171h-64l23 105l-10 20q-11 5 -37 12.5q-26 7.5 -78 7.5q-68 0 -124 -28q-56 -28 -96.5 -79.5q-40.5 -51.5 -63 -124q-22.5 -72.5 -22.5 -161.5q0 -43 11.5 -80q11.5 -37 37 -64.5q25.5 -27.5 66 -43q40.5 -15.5 97.5 -15.5q36 0 65.5 5.5q29.5 5.5 43.5 14.5l18 19zM697 919l28 -18l-202 -142h-31l-81 139l28 21l93 -55z" />
<glyph unicode="&#269;" horiz-adv-x="472" d="M436 99q-28 -52 -80 -80.5q-52 -28.5 -128 -28.5q-43 0 -77 15.5q-34 15.5 -58 41.5q-24 26 -36.5 61.5q-12.5 35.5 -12.5 74.5q0 78 21 143q21 65 61.5 111.5q40.5 46.5 98.5 72q58 25.5 132 25.5q42 0 78 -10.5q36 -10.5 51 -27.5l-30 -119h-70l21 90q-8 7 -26.5 10q-18.5 3 -33.5 3q-45 0 -81.5 -19.5q-36.5 -19.5 -63 -54.5q-26.5 -35 -40.5 -84.5q-14 -49.5 -14 -110.5q0 -72 33 -113.5q33 -41.5 87 -41.5q45 0 79.5 19.5q34.5 19.5 55.5 48.5zM523 806l32 -17l-199 -195h-29l-77 194l40 18l79 -110z" />
<glyph unicode="&#270;" horiz-adv-x="774" d="M-21 0l11 56h91l125 588h-91l12 56h123q19 0 45 1q26 1 53.5 2.5q27.5 1.5 53 3q25.5 1.5 42.5 1.5q98 0 159 -22.5q61 -22.5 95 -57.5q34 -35 46 -78q12 -43 12 -85q0 -105 -29.5 -192.5q-29.5 -87.5 -87.5 -150q-58 -62.5 -144 -97q-86 -34.5 -199 -34.5q-16 0 -39.5 1.5q-23.5 1.5 -49.5 3q-26 1.5 -52 3q-26 1.5 -47 1.5zM417 652q-28 0 -55 -1q-27 -1 -43 -4l-126 -596q6 -1 20 -1.5q14 -0.5 30.5 -1q16.5 -0.5 31.5 -1q15 -0.5 21 -0.5q96 0 160.5 37q64.5 37 103 96.5q38.5 59.5 55 135.5q16.5 76 16.5 154q0 36 -8.5 69q-8.5 33 -32.5 58q-24 25 -65.5 40q-41.5 15 -107.5 15zt0 0zM641 919l28 -18l-202 -142h-31l-81 139l28 21l93 -55z" />
<glyph unicode="&#271;" horiz-adv-x="591" d="M230 54q26 0 48.5 9q22.5 9 41.5 24q19 15 34.5 34q15.5 19 26.5 39l59 301q-16 11 -29.5 15.5q-13.5 4.5 -38.5 4.5q-53 0 -93.5 -28.5q-40.5 -28.5 -68.5 -74q-28 -45.5 -42.5 -102q-14.5 -56.5 -14.5 -112.5q0 -54 21.5 -82q21.5 -28 55.5 -28zt0 0zM365 104q-11 -20 -28 -40.5q-17 -20.5 -40 -37q-23 -16.5 -52 -26.5q-29 -10 -63 -10q-29 0 -53 11q-24 11 -42 31q-18 20 -28 49.5q-10 29.5 -10 65.5q0 74 22 144q22 70 63.5 124q41.5 54 101.5 87q60 33 135 33q15 0 25.5 -1q10.5 -1 19 -3q8.5 -2 16.5 -5.5q8 -3.5 19 -7.5l37 178h-73v54h183l-145 -700h81v-50h-177l13 104zM604 569q24 48 36 103.5q12 55.5 12 98.5l15 18l94 -26q-5 -29 -19.5 -59q-14.5 -30 -33.5 -57.5q-19 -27.5 -40.5 -50.5q-21.5 -23 -39.5 -38z" />
<glyph unicode="&#272;" horiz-adv-x="774" d="M-21 0l11 56h91l58 274h-101l11 54h101l56 260h-91l12 56h123q19 0 45 1q26 1 53.5 2.5q27.5 1.5 53 3q25.5 1.5 42.5 1.5q98 0 159 -22.5q61 -22.5 95 -57.5q34 -35 46 -78q12 -43 12 -85q0 -105 -29.5 -192.5q-29.5 -87.5 -87.5 -150q-58 -62.5 -144 -97q-86 -34.5 -199 -34.5q-16 0 -39.5 1.5q-23.5 1.5 -49.5 3q-26 1.5 -52 3q-26 1.5 -47 1.5zM417 652q-28 0 -55 -1q-27 -1 -43 -4l-56 -263h177l-11 -54h-178l-59 -279q6 -1 20.5 -1.5q14.5 -0.5 31 -1q16.5 -0.5 31.5 -1q15 -0.5 21 -0.5q96 0 160.5 37q64.5 37 103 96.5q38.5 59.5 55 135.5q16.5 76 16.5 154q0 36 -8.5 69q-8.5 33 -32.5 58q-24 25 -65.5 40t-107.5 15z" />
<glyph unicode="&#273;" horiz-adv-x="591" d="M302 643h175l11 53h-73v54h183l-22 -107h96l-13 -51h-94l-112 -542h81v-50h-177l13 104h-5q-11 -20 -28 -40.5q-17 -20.5 -40 -37q-23 -16.5 -52 -26.5q-29 -10 -63 -10q-29 0 -53 11q-24 11 -42 31q-18 20 -28 49.5q-10 29.5 -10 65.5q0 74 22 144q22 70 63.5 124q41.5 54 101.5 87q60 33 135 33q15 0 25.5 -1q10.5 -1 19 -3q8.5 -2 16.5 -5.5q8 -3.5 19 -7.5l15 74h-179zM230 54q26 0 48.5 9q22.5 9 41.5 24q19 15 34.5 34q15.5 19 26.5 39l59 301q-16 11 -29.5 15.5q-13.5 4.5 -38.5 4.5q-53 0 -94 -28.5q-41 -28.5 -69 -74q-28 -45.5 -43 -102q-15 -56.5 -15 -112.5q0 -54 22.5 -82t56.5 -28z" />
<glyph unicode="&#274;" horiz-adv-x="635" d="M659 700l-35 -164h-64l19 86l-16 22h-245l-55 -259h169l18 15l9 42h64l-36 -171h-64l9 42l-12 16h-169l-58 -273h262l24 20l21 98h64l-37 -174h-548l11 56h91l125 588h-91l12 56zM238 787l12 64h340l-12 -64z" />
<glyph unicode="&#275;" horiz-adv-x="501" d="M435 96q-11 -20 -30 -39q-19 -19 -45 -34q-26 -15 -58 -24q-32 -9 -69 -9q-86 0 -137.5 48.5q-51.5 48.5 -51.5 136.5q0 75 22 141q22 66 62 114q40 48 96.5 76.5q56.5 28.5 125.5 28.5q27 0 51 -6.5q24 -6.5 42 -19.5q18 -13 28 -32q10 -19 10 -44q0 -72 -76 -116q-76 -44 -249 -56q-4 -18 -6 -34q-2 -16 -2 -32q0 -63 32.5 -100.5q32.5 -37.5 95.5 -37.5q20 0 39.5 6q19.5 6 37.5 15.5q18 9.5 32.5 21.5q14.5 12 23.5 23zM317 488q-47 0 -86 -41.5q-39 -41.5 -67 -138.5q106 3 162.5 35q56.5 32 56.5 86q0 11 -3 21.5q-3 10.5 -10.5 19q-7.5 8.5 -20 13.5q-12.5 5 -32.5 5zt0 0zM223 668l12 55h288l-12 -55z" />
<glyph unicode="&#278;" horiz-adv-x="635" d="M659 700l-35 -164h-64l19 86l-16 22h-245l-55 -259h169l18 15l9 42h64l-36 -171h-64l9 42l-12 16h-169l-58 -273h262l24 20l21 98h64l-37 -174h-548l11 56h91l125 588h-91l12 56zM350 821q0 29 23 44q23 15 57 15q35 0 58 -15q23 -15 23 -44q0 -29 -23 -44q-23 -15 -58 -15q-34 0 -57 15t-23 44z" />
<glyph unicode="&#279;" horiz-adv-x="501" d="M435 96q-11 -20 -30 -39q-19 -19 -45 -34q-26 -15 -58 -24q-32 -9 -69 -9q-86 0 -137.5 48.5q-51.5 48.5 -51.5 136.5q0 75 22 141q22 66 62 114q40 48 96.5 76.5q56.5 28.5 125.5 28.5q27 0 51 -6.5q24 -6.5 42 -19.5q18 -13 28 -32q10 -19 10 -44q0 -72 -76 -116q-76 -44 -249 -56q-4 -18 -6 -34q-2 -16 -2 -32q0 -63 32.5 -100.5q32.5 -37.5 95.5 -37.5q20 0 39.5 6q19.5 6 37.5 15.5q18 9.5 32.5 21.5q14.5 12 23.5 23zM317 488q-47 0 -86 -41.5q-39 -41.5 -67 -138.5q106 3 162.5 35q56.5 32 56.5 86q0 11 -3 21.5q-3 10.5 -10.5 19q-7.5 8.5 -20 13.5q-12.5 5 -32.5 5zt0 0zM296 687q0 29 20.5 46q20.5 17 52.5 17q34 0 53.5 -17q19.5 -17 19.5 -46q0 -29 -19.5 -46q-19.5 -17 -53.5 -17q-32 0 -52.5 17t-20.5 46z" />
<glyph unicode="&#280;" horiz-adv-x="635" d="M659 700l-35 -164h-64l19 86l-16 22h-245l-55 -259h169l18 15l9 42h64l-36 -171h-64l9 42l-12 16h-169l-58 -273h262l24 20l21 98h64l-37 -174h-56q-50 -19 -83 -44q-33 -25 -33 -66q0 -27 15 -37.5q15 -10.5 48 -10.5q34 0 63 6l0 -31q-16 -11 -41 -19.5q-25 -8.5 -62 -8.5q-53 0 -86 19.5q-33 19.5 -33 63.5q0 23 11 42.5q11 19.5 29.5 35q18.5 15.5 43.5 28.5q25 13 52 22l-416 0l11 56h91l125 588h-91l12 56z" />
<glyph unicode="&#281;" horiz-adv-x="501" d="M435 96q-17 -32 -53 -59.5q-36 -27.5 -87 -38.5q-34 -17 -56.5 -40q-22.5 -23 -22.5 -58q0 -20 12 -36.5q12 -16.5 42 -16.5q30 0 59 10l0 -36q-16 -9 -40.5 -15q-24.5 -6 -44.5 -6q-66 0 -95 23.5q-29 23.5 -29 59.5q0 40 29 64.5q29 24.5 74 42.5q-82 3 -130.5 51.5q-48.5 48.5 -48.5 133.5q0 75 22 141q22 66 62 115.5q40 49.5 96.5 77q56.5 27.5 125.5 27.5q27 0 51 -6.5q24 -6.5 42 -19.5q18 -13 28 -32q10 -19 10 -44q0 -73 -77 -117q-77 -44 -250 -56q-4 -18 -5 -34q-1 -16 -1 -32q0 -63 32.5 -100.5q32.5 -37.5 95.5 -37.5q20 0 39.5 6q19.5 6 37.5 15.5q18 9.5 32.5 21.5q14.5 12 23.5 23zM317 489q-47 0 -87 -40.5q-40 -40.5 -68 -140.5q106 3 163.5 35q57.5 32 57.5 87q0 11 -3 21.5q-3 10.5 -10.5 19q-7.5 8.5 -20 13.5t-32.5 5z" />
<glyph unicode="&#282;" horiz-adv-x="635" d="M659 700l-35 -164h-64l19 86l-16 22h-245l-55 -259h169l18 15l9 42h64l-36 -171h-64l9 42l-12 16h-169l-58 -273h262l24 20l21 98h64l-37 -174h-548l11 56h91l125 588h-91l12 56zM605 919l28 -18l-202 -142h-31l-81 139l28 21l93 -55z" />
<glyph unicode="&#283;" horiz-adv-x="501" d="M435 96q-11 -20 -30 -39q-19 -19 -45 -34q-26 -15 -58 -24q-32 -9 -69 -9q-86 0 -137.5 48.5q-51.5 48.5 -51.5 136.5q0 75 22 141q22 66 62 114q40 48 96.5 76.5q56.5 28.5 125.5 28.5q27 0 51 -6.5q24 -6.5 42 -19.5q18 -13 28 -32q10 -19 10 -44q0 -72 -76 -116q-76 -44 -249 -56q-4 -18 -6 -34q-2 -16 -2 -32q0 -63 32.5 -100.5q32.5 -37.5 95.5 -37.5q20 0 39.5 6q19.5 6 37.5 15.5q18 9.5 32.5 21.5q14.5 12 23.5 23zM317 488q-47 0 -86 -41.5q-39 -41.5 -67 -138.5q106 3 162.5 35q56.5 32 56.5 86q0 11 -3 21.5q-3 10.5 -10.5 19q-7.5 8.5 -20 13.5q-12.5 5 -32.5 5zt0 0zM515 806l32 -17l-199 -195h-29l-77 194l40 18l79 -110z" />
<glyph unicode="&#284;" horiz-adv-x="764" d="M617 48q-49 -29 -112 -44.5q-63 -15.5 -120 -15.5q-93 0 -153 23.5q-60 23.5 -94.5 61q-34.5 37.5 -48 85q-13.5 47.5 -13.5 96.5q0 100 29.5 184q29.5 84 85 145q55.5 61 135.5 95q80 34 182 34q74 0 125 -10.5q51 -10.5 86 -27.5q0 0 -1.5 -7.5q-1.5 -7.5 -4.5 -19.5q-3 -12 -6.5 -27.5q-3.5 -15.5 -6.5 -31.5q-8 -38 -18 -85l-64 0l23 105l-10 20q-8 5 -23 9q-15 4 -32 6.5q-17 2.5 -35 3.5q-18 1 -32 1q-74 0 -131.5 -31.5q-57.5 -31.5 -96.5 -85q-39 -53.5 -59.5 -124.5q-20.5 -71 -20.5 -150q0 -38 9 -75q9 -37 32.5 -66q23.5 -29 64 -46.5q40.5 -17.5 103.5 -17.5q33 0 54 4.5q21 4.5 41 11.5l19 18l40 189h-106l12 56h277l-12 -56h-70zM371 761l-16 20l192 133h31l121 -130l-18 -22l-142 56z" />
<glyph unicode="&#285;" horiz-adv-x="538" d="M367 -55q0 28 -25.5 46.5q-25.5 18.5 -70.5 31q-45 12.5 -106.5 20.5q-61.5 8 -133.5 15l99 139q-14 7 -28.5 17.5q-14.5 10.5 -25.5 26.5q-11 16 -18 37.5q-7 21.5 -7 49.5q0 49 18.5 87.5q18.5 38.5 52.5 65q34 26.5 80.5 40.5q46.5 14 103.5 14h272v-54h-109q7 -12 11 -37q4 -25 4 -49q0 -55 -20.5 -96.5q-20.5 -41.5 -54.5 -70q-34 -28.5 -78.5 -43q-44.5 -14.5 -92.5 -14.5q-21 0 -42 2q-21 2 -28 6l-44 -62q54 -4 115 -10q61 -6 112.5 -21q51.5 -15 85.5 -42q34 -27 34 -72q0 -44 -24 -78q-24 -34 -63.5 -57q-39.5 -23 -91.5 -35q-52 -12 -108 -12q-48 0 -90.5 9q-42.5 9 -75 25.5q-32.5 16.5 -51 39q-18.5 22.5 -18.5 50.5q0 33 22 55q22 22 50 31l55 0q-14 -12 -22.5 -29.5q-8.5 -17.5 -8.5 -33.5q0 -24 14 -41.5q14 -17.5 36 -29q22 -11.5 49.5 -17q27.5 -5.5 55.5 -5.5q41 0 72 8.5q31 8.5 52 23q21 14.5 32 32.5q11 18 11 37zt0 0zM311 485q-74 0 -120.5 -39.5q-46.5 -39.5 -46.5 -124.5q0 -27 8.5 -47q8.5 -20 22 -33.5q13.5 -13.5 31 -20q17.5 -6.5 35.5 -6.5q34 0 62.5 12q28.5 12 48.5 33.5q20 21.5 31 51.5q11 30 11 67q0 38 -7.5 64.5q-7.5 26.5 -21.5 42.5zM228 619l-32 17l195 196h29l56 -195l-32 -18l-70 112z" />
<glyph unicode="&#286;" horiz-adv-x="764" d="M617 48q-49 -29 -112 -44.5q-63 -15.5 -120 -15.5q-93 0 -153 23.5q-60 23.5 -94.5 61q-34.5 37.5 -48 85q-13.5 47.5 -13.5 96.5q0 100 29.5 184q29.5 84 85 145q55.5 61 135.5 95q80 34 182 34q74 0 125 -10.5q51 -10.5 86 -27.5q0 0 -1.5 -7.5q-1.5 -7.5 -4.5 -19.5q-3 -12 -6.5 -27.5q-3.5 -15.5 -6.5 -31.5q-8 -38 -18 -85l-64 0l23 105l-10 20q-8 5 -23 9q-15 4 -32 6.5q-17 2.5 -35 3.5q-18 1 -32 1q-74 0 -131.5 -31.5q-57.5 -31.5 -96.5 -85q-39 -53.5 -59.5 -124.5q-20.5 -71 -20.5 -150q0 -38 9 -75q9 -37 32.5 -66q23.5 -29 64 -46.5q40.5 -17.5 103.5 -17.5q33 0 54 4.5q21 4.5 41 11.5l19 18l40 189h-106l12 56h277l-12 -56h-70zM716 888q-10 -22 -29 -44.5q-19 -22.5 -44.5 -41q-25.5 -18.5 -57 -30.5q-31.5 -12 -66.5 -12q-26 0 -51 10.5q-25 10.5 -45 28.5q-20 18 -33 41.5q-13 23.5 -16 49.5l47 15q13 -28 40.5 -45.5q27.5 -17.5 63.5 -17.5q43 0 82.5 14q39.5 14 72.5 46z" />
<glyph unicode="&#287;" horiz-adv-x="538" d="M367 -55q0 28 -25.5 46.5q-25.5 18.5 -70.5 31q-45 12.5 -106.5 20.5q-61.5 8 -133.5 15l99 139q-14 7 -28.5 17.5q-14.5 10.5 -25.5 26.5q-11 16 -18 37.5q-7 21.5 -7 49.5q0 49 18.5 87.5q18.5 38.5 52.5 65q34 26.5 80.5 40.5q46.5 14 103.5 14h272v-54h-109q7 -12 11 -37q4 -25 4 -49q0 -55 -20.5 -96.5q-20.5 -41.5 -54.5 -70q-34 -28.5 -78.5 -43q-44.5 -14.5 -92.5 -14.5q-21 0 -42 2q-21 2 -28 6l-44 -62q54 -4 115 -10q61 -6 112.5 -21q51.5 -15 85.5 -42q34 -27 34 -72q0 -44 -24 -78q-24 -34 -63.5 -57q-39.5 -23 -91.5 -35q-52 -12 -108 -12q-48 0 -90.5 9q-42.5 9 -75 25.5q-32.5 16.5 -51 39q-18.5 22.5 -18.5 50.5q0 33 22 55q22 22 50 31l55 0q-14 -12 -22.5 -29.5q-8.5 -17.5 -8.5 -33.5q0 -24 14 -41.5q14 -17.5 36 -29q22 -11.5 49.5 -17q27.5 -5.5 55.5 -5.5q41 0 72 8.5q31 8.5 52 23q21 14.5 32 32.5q11 18 11 37zt0 0zM311 485q-74 0 -120.5 -39.5q-46.5 -39.5 -46.5 -124.5q0 -27 8.5 -47q8.5 -20 22 -33.5q13.5 -13.5 31 -20q17.5 -6.5 35.5 -6.5q34 0 62.5 12q28.5 12 48.5 33.5q20 21.5 31 51.5q11 30 11 67q0 38 -7.5 64.5q-7.5 26.5 -21.5 42.5zM518 756q-10 -24 -29 -47q-19 -23 -43.5 -41q-24.5 -18 -52.5 -29.5q-28 -11.5 -56 -11.5q-30 0 -52 10q-22 10 -37 28q-15 18 -24 42q-9 24 -13 51l32 14q11 -31 35.5 -50q24.5 -19 59.5 -19q50 0 87 14.5q37 14.5 66 50.5z" />
<glyph unicode="&#290;" horiz-adv-x="764" d="M617 48q-49 -29 -112 -44.5q-63 -15.5 -120 -15.5q-93 0 -153 23.5q-60 23.5 -94.5 61q-34.5 37.5 -48 85q-13.5 47.5 -13.5 96.5q0 100 29.5 184q29.5 84 85 145q55.5 61 135.5 95q80 34 182 34q74 0 125 -10.5q51 -10.5 86 -27.5q0 0 -1.5 -7.5q-1.5 -7.5 -4.5 -19.5q-3 -12 -6.5 -27.5q-3.5 -15.5 -6.5 -31.5q-8 -38 -18 -85l-64 0l23 105l-10 20q-8 5 -23 9q-15 4 -32 6.5q-17 2.5 -35 3.5q-18 1 -32 1q-74 0 -131.5 -31.5q-57.5 -31.5 -96.5 -85q-39 -53.5 -59.5 -124.5q-20.5 -71 -20.5 -150q0 -38 9 -75q9 -37 32.5 -66q23.5 -29 64 -46.5q40.5 -17.5 103.5 -17.5q33 0 54 4.5q21 4.5 41 11.5l19 18l40 189h-106l12 56h277l-12 -56h-70zM249 -238q45 9 70.5 28q25.5 19 33.5 53l-53 0q-8 10 -11 21.5q-3 11.5 -3 22.5q0 20 7 37.5q7 17.5 17 27.5l129 0q8 -29 8 -51q0 -38 -16 -68.5q-16 -30.5 -42.5 -53q-26.5 -22.5 -59 -37.5q-32.5 -15 -65.5 -22z" />
</font>
</defs>
</svg>
